Видео Мультипликация Рататуй / Ratatouille (2007) BDRip-AVC от ExKinoRay
Рататуй / Ratatouille (2007) BDRip-AVC от ExKinoRay

Информация о фильме
Название:Рататуй
Оригинальное название:Ratatouille
Год выхода:2007
Жанр:Фэнтези, комедия, семейный, мультфильм
Режиссер:Брэд Берд
В ролях:Пэттон Осуолт, Брайан Деннехи, Джанин Гарофало, Иэн Холм, Дэвид Швиммер, Адам Скотт, Брэд Гарретт


О фильме:
"Рататуй" (деревенское блюдо из овощей) — уморительная история о французской крысе, которая мечтает стать шеф-поваром известного парижского ресторана, — просто обречена на успех. В крысеныша Реми просто невозможно не влюбиться. В отличие от своих неопрятных сородичей еду он ворует исключительно свежую. И поглощает ее не абы как, а только приготовив великолепные блюда по рецептам знаменитого кулинара Гюсто. Естественно, страсть к изысканной пище приводит Реми в Париж, в тот самый ресторан Гюсто. Однако владелец заведения только что скончался: не смог перенести разгромную рецензию от вредного ресторанного критика. Более того: новый хозяин заведения, гадкий карлик из Италии, окончательно губит репутацию покойного, продвигая на рынке... линию полуфабрикатов "От Гюсто". Короче говоря, судьба всей французской кухни теперь находится в лапках Реми и руках его нового друга, недотепы уборщика.

Рататуй / Ratatouille (2007) BDRip-AVC от ExKinoRay

Страна: США, Walt Disney Pictures, Pixar Animation Studios
Продолжительность: 01:51:04
Перевод:Дублированный / Профессиональный, многоголосый / Профессиональный, двухголосый (Гланц и Королёва)
Субтитры:Русские, английские
Дата релиза: 28.03.2012

Файл
Кодек:H.264
Качество:BDRip (AVC) (Blu-ray Remux (1080p))
Видео:MPEG-4 AVC, 1800 Кбит/с, 1024x428
Звук:Русский, английский (АС3, 6 ch, 448 Кбит/с)

MediaInfo
Общее
Уникальный идентификатор : 199846823586824724659772991391609532947 (0x96591922905E88F9A825807DCA3E3213)
Полное имя : D:ФильмыфильмыRatatuj.2007.x264.BDRip.(AVC).ExKinoRay.mkv
Формат : Matroska
Версия формата : Version 2
Размер файла : 2,78 Гбайт
Продолжительность : 1 ч. 51 м.
Общий поток : 3580 Кбит/сек
Название фильма : Ratatuj.2007.x264.BDRip.(AVC).ExKinoRay (Rip by Enigma-Vladislav71)
Дата кодирования : UTC 2012-03-28 10:42:50
Программа кодирования : mkvmerge v4.0.0 ('The Stars were mine') сборка от Jun 6 2010 16:18:42
Библиотека кодирования : libebml v1.0.0 + libmatroska v1.0.0

Видео
Идентификатор : 1
Формат : AVC
Формат/Информация : Advanced Video Codec
Профиль формата : High@L4.1
Параметр CABAC формата : Да
Параметр ReFrames формата : 8 кадров
Идентификатор кодека : V_MPEG4/ISO/AVC
Продолжительность : 1 ч. 51 м.
Битрейт : 1800 Кбит/сек
Ширина : 1024 пикселя
Высота : 428 пикселей
Соотношение сторон : 2,40:1
Частота кадров : 23,976 кадра/сек
Цветовое пространство : YUV
Субдискретизация насыщенности : 4:2:0
Битовая глубина : 8 бит
Тип развёртки : Прогрессивная
Бит/(Пиксели*Кадры) : 0.171
Размер потока : 1,33 Гбайт (48%)
Библиотека кодирования : x264 core 116 r2074 2641b9e
Настройки программы : cabac=1 / ref=8 / deblock=1:-2:-2 / analyse=0x3:0x133 / me=umh / subme=11 / psy=1 / psy_rd=1.00:0.00 / mixed_ref=1 / me_range=48 / chroma_me=1 / trellis=2 / 8x8dct=1 / cqm=0 / deadzone=21,11 / fast_pskip=0 / chroma_qp_offset=-2 / threads=3 / sliced_threads=0 / nr=0 / decimate=1 / interlaced=0 / bluray_compat=0 / constrained_intra=0 / bframes=8 / b_pyramid=2 / b_adapt=2 / b_bias=0 / direct=3 / weightb=1 / open_gop=0 / weightp=2 / keyint=250 / keyint_min=23 / scenecut=40 / intra_refresh=0 / rc=2pass / mbtree=0 / bitrate=1800 / ratetol=1.0 / qcomp=0.60 / qpmin=10 / qpmax=51 / qpstep=4 / cplxblur=20.0 / qblur=0.5 / ip_ratio=1.40 / pb_ratio=1.30 / aq=2:1.00
Язык : English
Default : Нет
Forced : Нет

Аудио #1
Идентификатор : 2
Формат : AC-3
Формат/Информация : Audio Coding 3
Расширение режима : CM (complete main)
Идентификатор кодека : A_AC3
Продолжительность : 1 ч. 51 м.
Вид битрейта : Постоянный
Битрейт : 448 Кбит/сек
Каналы : 6 каналов
Расположение каналов : Front: L C R, Side: L R, LFE
Частота : 48,0 КГц
Битовая глубина : 16 бит
Метод сжатия : С потерями
Размер потока : 356 Мбайт (13%)
Заголовок : Дублированный
Язык : Russian
Default : Да
Forced : Нет

Аудио #2
Идентификатор : 3
Формат : AC-3
Формат/Информация : Audio Coding 3
Расширение режима : CM (complete main)
Идентификатор кодека : A_AC3
Продолжительность : 1 ч. 51 м.
Вид битрейта : Постоянный
Битрейт : 448 Кбит/сек
Каналы : 6 каналов
Расположение каналов : Front: L C R, Side: L R, LFE
Частота : 48,0 КГц
Битовая глубина : 16 бит
Метод сжатия : С потерями
Размер потока : 356 Мбайт (13%)
Заголовок : многоголосый
Язык : Russian
Default : Нет
Forced : Нет

Аудио #3
Идентификатор : 4
Формат : AC-3
Формат/Информация : Audio Coding 3
Расширение режима : CM (complete main)
Идентификатор кодека : A_AC3
Продолжительность : 1 ч. 51 м.
Вид битрейта : Постоянный
Битрейт : 448 Кбит/сек
Каналы : 6 каналов
Расположение каналов : Front: L C R, Side: L R, LFE
Частота : 48,0 КГц
Битовая глубина : 16 бит
Метод сжатия : С потерями
Размер потока : 356 Мбайт (13%)
Заголовок : двухголосый (Гланц и Королёва)
Язык : Russian
Default : Нет
Forced : Нет

Аудио #4
Идентификатор : 5
Формат : AC-3
Формат/Информация : Audio Coding 3
Расширение режима : CM (complete main)
Идентификатор кодека : A_AC3
Продолжительность : 1 ч. 51 м.
Вид битрейта : Постоянный
Битрейт : 448 Кбит/сек
Каналы : 6 каналов
Расположение каналов : Front: L C R, Side: L R, LFE
Частота : 48,0 КГц
Битовая глубина : 16 бит
Метод сжатия : С потерями
Размер потока : 356 Мбайт (13%)
Заголовок : английский
Язык : English
Default : Нет
Forced : Нет

Текст #1
Идентификатор : 6
Формат : UTF-8
Идентификатор кодека : S_TEXT/UTF8
Идентификатор кодека/Информация : UTF-8 Plain Text
Язык : Russian
Default : Да
Forced : Нет

Текст #2
Идентификатор : 7
Формат : UTF-8
Идентификатор кодека : S_TEXT/UTF8
Идентификатор кодека/Информация : UTF-8 Plain Text
Язык : English
Default : Нет
Forced : Нет

Меню
00:00:00.000 : en:Chapter 01
00:01:16.200 : en:Chapter 02
00:06:29.429 : en:Chapter 03
00:09:22.895 : en:Chapter 04
00:10:58.073 : en:Chapter 05
00:13:30.976 : en:Chapter 06
00:17:40.017 : en:Chapter 07
00:19:37.551 : en:Chapter 08
00:24:48.320 : en:Chapter 09
00:28:55.233 : en:Chapter 10
00:33:05.065 : en:Chapter 11
00:38:13.416 : en:Chapter 12
00:40:33.139 : en:Chapter 13
00:44:11.231 : en:Chapter 14
00:46:59.315 : en:Chapter 15
00:51:27.667 : en:Chapter 16
00:57:02.168 : en:Chapter 17
00:59:32.318 : en:Chapter 18
01:00:53.524 : en:Chapter 19
01:07:19.744 : en:Chapter 20
01:11:25.656 : en:Chapter 21
01:15:28.232 : en:Chapter 22
01:19:25.093 : en:Chapter 23
01:23:30.130 : en:Chapter 24
01:25:34.462 : en:Chapter 25
01:28:18.334 : en:Chapter 26
01:32:39.011 : en:Chapter 27
01:35:41.444 : en:Chapter 28
01:38:49.715 : en:Chapter 29
01:40:54.673 : en:Chapter 30
01:42:58.964 : en:Chapter 31
01:50:33.126 : en:Chapter 32


Семпл

Скриншоты
Рататуй / Ratatouille (2007) BDRip-AVC от ExKinoRayРататуй / Ratatouille (2007) BDRip-AVC от ExKinoRayРататуй / Ratatouille (2007) BDRip-AVC от ExKinoRayРататуй / Ratatouille (2007) BDRip-AVC от ExKinoRay



Релиз от:Рататуй / Ratatouille (2007) BDRip-AVC от ExKinoRay

Авторы релиза:Рататуй / Ratatouille (2007) BDRip-AVC от ExKinoRay
Категория: Мультипликация

Торренты - Мультипликация