Видео Мультипликация Шинко с вихром и тысячелетняя магия / Maimai Shinko to sennen no maho (2009) BDRip от HQ-ViDEO
Шинко с вихром и тысячелетняя магия / Maimai Shinko to sennen no maho (2009) BDRip
Релиз отHQ-ViDEO


Шинко с вихром и тысячелетняя магия / Maimai Shinko to sennen no maho (2009) BDRip от HQ-ViDEO

Информация о фильме:

Название: Шинко с вихром и тысячелетняя магия
Оригинальное название:Maimai Shinko to sennen no maho
Год выхода:2009
Жанр: Мультфильм
Режиссёр: Катабути Сунао/Katabuchi Sunao/

В ролях:Маюко Фукуда /Mayuko Fukuda/, Манами Хондзё /Manami Honjou/, Jenya, Нако Мизусава /Nako Mizusawa/, Еи Морисако /Ei Morisako/

Описание: Япония, 1955 год. Тихий городок Хофу окружен рисовыми полями, жизнь течет медленно и размеренно, а новости цивилизации доносятся лишь слабыми отголосками. Но 9-летняя Синко Аоки, вихрастый клубок кипучей энергии и лидер местной ребятни, никогда не скучает — ведь кругом столько загадочного и интересного! От деда и школьных учителей она узнала, что когда-то их город был столицей земли Суо, откуда по Внутреннему морю рукой подать до Киото — древней имперской столицы. А еще тысячу лет назад в доме у моря жила дочка губернатора, ровесница Синко. Какой она была? Вот бы им встретиться! Фильм рассказывает о мире детства — чистом, наивном и простом, который не имеет границ, где нет понятия невозможного. Захотев, можно подружиться и с немного странной приезжей из Токио, и с принцессой из далекого прошлого. Возможно все, пока есть сила духа и воображение — такова тысячелетняя магия, к которой прикоснулись Синко и ее друзья. Вырастая, мы теряем эту связь, именно поэтому детство человека освещает всю его дальнейшую жизнь. Так было в эпоху Хэйан, так будет и впредь!

Шинко с вихром и тысячелетняя магия / Maimai Shinko to sennen no maho (2009) BDRip от HQ-ViDEOШинко с вихром и тысячелетняя магия / Maimai Shinko to sennen no maho (2009) BDRip от HQ-ViDEOШинко с вихром и тысячелетняя магия / Maimai Shinko to sennen no maho (2009) BDRip от HQ-ViDEOШинко с вихром и тысячелетняя магия / Maimai Shinko to sennen no maho (2009) BDRip от HQ-ViDEO

Страна: Япония Шинко с вихром и тысячелетняя магия / Maimai Shinko to sennen no maho (2009) BDRip от HQ-ViDEO
Продолжительность:1:35:00
Перевод: Русский профессиональный многоголосый (Омикрон)
Субтитры:Русские (drauglin) (srt, ass).

Информация о файле:
Качество:BDRip
Файл: AVI
Кодек:XviD, build65 codec
Видео:704 x 400, 1.76:1; 23.976 fps; ~1739 kbps; 0.258 bit/pixel
Аудио #1:48 kHz, AC3Dolby Digital, 3/2 (L,C,R,l,r) + LFE ch, ~448.00kbps avg| MVO Омикрон
Аудио #2:48 kHz, AC3Dolby Digital, 3/2 (L,C,R,l,r) + LFE ch, ~448.00kbps avg| DVO TF-AniGroup | отдельно
Аудио #3:48 kHz, AC3Dolby Digital, 3/2 (L,C,R,l,r) + LFE ch, ~448.00kbps avg| Original | отдельно

Размер:1492 Mb (1/3 Шинко с вихром и тысячелетняя магия / Maimai Shinko to sennen no maho (2009) BDRip от HQ-ViDEO )

MediaInfo

General
Общее
Полное имя : C:animeShinko.S.Vihrom.I.Tysyacheletnyaya.Magiya.2009.RUS.BDRip.XviD.AC3.-HQ-ViDEOShinko.S.Vihrom.I.Tysyacheletnyaya.Magiya.2009.RUS.BDRip.XviD.AC3.-HQ-ViDEO.avi
Формат : AVI
Формат/Информация : Audio Video Interleave
Размер файла : 1,46 Гбайт
Продолжительность : 1 ч. 35 м.
Общий поток : 2196 Кбит/сек
Название фильма : Шинко с вихром и тысячелетняя магия / Mai Mai Shinko to Sennen no Mahou
Режиссёр : Overlord
Программа кодирования : VirtualDubMod 1.5.10.1 (build 2366/release)
Правообладатель : HQ-ViDEO
Примечание : 21.03.12

Видео
Идентификатор : 0
Формат : MPEG-4 Visual
Профиль формата : Advanced Simple@L5
Параметр BVOP формата : 2
Параметр QPel формата : Нет
Параметр GMC формата : Без точки перехода
Параметр матрицы формата : Выборочная
Идентификатор кодека : XVID
Идентификатор кодека/Подсказка : XviD
Продолжительность : 1 ч. 35 м.
Битрейт : 1739 Кбит/сек
Ширина : 704 пикселя
Высота : 400 пикселей
Соотношение сторон : 16:9
Частота кадров : 23,976 кадра/сек
Цветовое пространство : YUV
Субдискретизация насыщенности : 4:2:0
Битовая глубина : 8 бит
Тип развёртки : Прогрессивная
Метод сжатия : С потерями
Бит/(Пиксели*Кадры) : 0.258
Размер потока : 1,15 Гбайт (79%)
Библиотека кодирования : XviD 65

Аудио
Идентификатор : 1
Формат : AC-3
Формат/Информация : Audio Coding 3
Расширение режима : CM (complete main)
Идентификатор кодека : 2000
Продолжительность : 1 ч. 35 м.
Вид битрейта : Постоянный
Битрейт : 448 Кбит/сек
Каналы : 6 каналов
Расположение каналов : Front: L C R, Side: L R, LFE
Частота : 48,0 КГц
Битовая глубина : 16 бит
Метод сжатия : С потерями
Размер потока : 304 Мбайт (20%)
Выравнивание : Разделение по промежуткам
Продолжительность промежутка : 42 мс. (1,00 видеокадр)
Время предзагрузки промежутка : 500 мс.
Скриншоты для оценки качества (превью - увеличение по клику):

Шинко с вихром и тысячелетняя магия / Maimai Shinko to sennen no maho (2009) BDRip от HQ-ViDEOШинко с вихром и тысячелетняя магия / Maimai Shinko to sennen no maho (2009) BDRip от HQ-ViDEOШинко с вихром и тысячелетняя магия / Maimai Shinko to sennen no maho (2009) BDRip от HQ-ViDEOШинко с вихром и тысячелетняя магия / Maimai Shinko to sennen no maho (2009) BDRip от HQ-ViDEOШинко с вихром и тысячелетняя магия / Maimai Shinko to sennen no maho (2009) BDRip от HQ-ViDEOШинко с вихром и тысячелетняя магия / Maimai Shinko to sennen no maho (2009) BDRip от HQ-ViDEOШинко с вихром и тысячелетняя магия / Maimai Shinko to sennen no maho (2009) BDRip от HQ-ViDEOШинко с вихром и тысячелетняя магия / Maimai Shinko to sennen no maho (2009) BDRip от HQ-ViDEO


Релиз:Шинко с вихром и тысячелетняя магия / Maimai Shinko to sennen no maho (2009) BDRip от HQ-ViDEOШинко с вихром и тысячелетняя магия / Maimai Shinko to sennen no maho (2009) BDRip от HQ-ViDEO
Автор рипа:Overlord
Источник:Blu-Ray Remux

ПРИЯТНОГО ПРОСМОТРА!

Категория: Мультипликация

Торренты - Мультипликация