Видео Аниме Мне 30, и я девственник / 30-sai no Hoken Taiiku [01-11 из 12] (2011) HDTVRip 720p
Мне 30, и я девственник / 30-sai no Hoken Taiiku [01-11 из 12] (2011) HDTVRip 720p

Оригинальное название: 30-sai no Hoken Taiiku
Русское название: Мне 30, и я девственник
Страна:Мне 30, и я девственник / 30-sai no Hoken Taiiku [01-11 из 12] (2011) HDTVRip 720p Япония
Жанр: комедия, этти
Студия:Мне 30, и я девственник / 30-sai no Hoken Taiiku [01-11 из 12] (2011) HDTVRip 720p
Режиссёр: Манкю

Описание:Застенчивый мужчина около 30 и на сегодняшний день не имеющий половые контакты с женщинами.
Адаптация одноимённой манги, которая является в своём роде «секс — инструкцией для 30-и летних девственников» или «как, наконец, познать прелести жизни для абсолютных ЧАЙНИКОВ».
Ну, если уж совсем просто объяснять, то, как пелось в одной песне «даже если вам немного за 30...» только подогнать под мужскую аудиторию. И получите смысл всего аниме в целом.
Что ж! Давайте наслаждаться взлётами и падениями Неудавшегося Казановы.



Параметры релиза:
Контейнер: 1,2,4,6,7,8,9,10 (mp4) , 3,5 (mkv)
Видео: 1024x720, ~2000+ Kbps, 23.976 fps
Аудио: RUS, AAC, 192kb, 48000
Субтитры: Нет


Работа над релизом:
Перевод:Hitsugaya936
Тайминг:Rezan
Работа над звуком:Rezan , Стасяныч
Озвучивание:Rezan
Автор обложки:polina



Первые 4 серии были переозвучены !

Подробней:


MP4

Скрытый текст

Общее
Формат : MPEG-4
Идентификатор кодека : M4V
Продолжительность : 12 м.
Общий поток : 1895 Кбит/сек
Программа кодирования : Lavf53.0.3

Видео
Идентификатор : 1
Формат : AVC
Формат/Информация : Advanced Video Codec
Профиль формата : High@L4.1
Параметр CABAC формата : Да
Параметр ReFrames формата : 4 кадра
Идентификатор кодека : avc1
Идентификатор кодека/Информация : Advanced Video Coding
Продолжительность : 12 м.
Вид битрейта : Переменный
Битрейт : 1659 Кбит/сек
Ширина : 1280 пикс.
Высота : 720 пикс.
Соотношение сторон : 16:9
Режим частоты кадров : Переменный
Частота кадров : 24,668 кадр/сек
Частота кадров в оригинале : 23,976 кадр/сек
Минимальная частота кадров : 23,952 кадр/сек
Максимальная частота кадров : 30,000 кадр/сек
Цветовое пространство : YUV
Подвыборка цветности : 4:2:0
Битовая глубина : 8 бит
Тип развёртки : Прогрессивная
Бит/(Пиксели*Кадры) : 0.073
Размер потока : 154 Мбайт (88%)

Аудио
Идентификатор : 2
Формат : AAC
Формат/Информация : Advanced Audio Codec
Профиль формата : LC
Идентификатор кодека : 40
Продолжительность : 12 м.
Вид битрейта : Постоянный
Битрейт : 229 Кбит/сек
Каналы : 2 канала
Расположение каналов : Front: L R
Частота : 48,0 КГц
Размер потока : 21,2 Мбайт (12%)


MKV

Скрытый текст
Формат : Matroska
Размер файла : 226 Мбайт
Продолжительность : 12 м.
Общий поток : 2478 Кбит/сек
Дата кодирования : UTC 2011-04-23 10:03:52
Программа кодирования : mkvmerge v4.3.0 ('Escape from the Island') сборка от Sep 5 2010 10:30:51
Библиотека кодирования : libebml v1.0.0 + libmatroska v1.0.0

Видео
Идентификатор : 1
Формат : AVC
Формат/Информация : Advanced Video Codec
Профиль формата : High@L3.1
Параметр CABAC формата : Да
Параметр ReFrames формата : 4 кадры
Режим смешивания : Header stripping
Идентификатор кодека : V_MPEG4/ISO/AVC
Продолжительность : 12 м.
Ширина : 1280 пикс.
Высота : 720 пикс.
Соотношение сторон : 16:9
Частота кадров : 23,976 кадр/сек
Цветовое пространство : YUV
Подвыборка цветности : 4:2:0
Битовая глубина : 8 бит
Тип развёртки : Прогрессивная
Библиотека кодирования : x264 core 114 r1900 60ef1f8
Язык : Japanese

Аудио #1
Идентификатор : 2
Формат : AAC
Формат/Информация : Advanced Audio Codec
Профиль формата : LC
Идентификатор кодека : A_AAC
Продолжительность : 12 м.
Канал(ы) : 2 канала(ов)
Расположение каналов : Front: L R
Частота : 48,0 КГц
Метод сжатия : С потерями
Заголовок : Rezan_RUS
Язык : Russian

Аудио #2
Идентификатор : 3
Формат : AAC
Формат/Информация : Advanced Audio Codec
Профиль формата : LC
Идентификатор кодека : A_AAC
Продолжительность : 12 м.
Канал(ы) : 2 канала(ов)
Расположение каналов : Front: L R
Частота : 48,0 КГц
Заголовок : JPN
Язык : Japanese


Релиз от:Мне 30, и я девственник / 30-sai no Hoken Taiiku [01-11 из 12] (2011) HDTVRip 720p

Скрины:

Мне 30, и я девственник / 30-sai no Hoken Taiiku [01-11 из 12] (2011) HDTVRip 720pМне 30, и я девственник / 30-sai no Hoken Taiiku [01-11 из 12] (2011) HDTVRip 720pМне 30, и я девственник / 30-sai no Hoken Taiiku [01-11 из 12] (2011) HDTVRip 720p

Мне 30, и я девственник / 30-sai no Hoken Taiiku [01-11 из 12] (2011) HDTVRip 720pМне 30, и я девственник / 30-sai no Hoken Taiiku [01-11 из 12] (2011) HDTVRip 720pМне 30, и я девственник / 30-sai no Hoken Taiiku [01-11 из 12] (2011) HDTVRip 720p
Категория: Аниме

Скачать торрент

Торренты - Аниме