Видео Аниме Бакуган: Импульс Мектаниума / Bakugan: Mechtanium Surge [04x01-26 из 46] (2012) SATRip
Бакуган: Импульс Мектаниума / Bakugan: Mechtanium Surge [04x01-26 из 46] (2012) SATRip
Страна:
Япония
Жанр: Приключение, Комедия
Продолжительность: 00:22:00
Год выпуска: 2012
Перевод: Профессиональный (дублированный)
Русские субтитры: нет
Режиссёр: Мицуо Хэшимото / Mitsuo Hashimoto
Описание:Действие по прежнему продолжается в Бакуган Интер-Спейс. Появляются 2 новые команды, которые по силе не уступают главным героям. Дэн пробует бой с подчинённым главы этой команды, сначала он превосходит противника, но затем неожиданно телепатической связью с ним связывается невероятно большой бакуган (Мектоган) по имени Зентон, который фактически срывает юношу и Драго с первого места в рейтинге (первым становится Анубиас). Тогда Дэн решает во что бы то ни стало найти и обрести контроль над Зентоном.
Качество: SATRip
Формат: AVI
Видео:704x448 (1.57:1), 25 fps, XviD MPEG-4 ~1708 kbps avg, 0.22 bit/pixel
Видео#2: 704x384 (1.83:1), 25 fps, XviD build 64 ~1706 kbps avg, 0.25 bit/pixel ( серии 26 - )
Аудио: 48 kHz, MPEG Layer 3, 2 ch, ~128.00 kbps avg
Субтитры: отсутствуют
Список серий:
S04Ep01 Interspace Showdown
S04Ep02 Mechtogan Mayhem
S04Ep03 Disconnect
S04Ep04 Fall From Grace
S04Ep05 Tri-Twister Take Down
S04Ep06 Agony of Defeat
S04Ep07 BakuNano Explosion
S04Ep08 Return to New Vestroia
S04Ep09 Chaos Control
S04Ep10 A Royale Pain
S04Ep11 Back in Sync
S04Ep12 Mind Search
S04Ep13 Re-Connection
S04Ep14 Triple Threat
S04Ep15 Interspace Under Siege
S04Ep16 A Hero Returns
S04Ep17 Gundalia Under Fire
S04Ep18 Battle Lines
S04Ep19 Unlocking The Gate
S04Ep20 True Colours
S04Ep21 Dangerous Beauty
S04Ep22 Unfinished Business
S04Ep23 Behind The Mask
S04Ep24 Ihterspace Armageddoh
S04Ep25 Dark Mooh
S04Ep26 The Final Takedown
Подробные технические данные:
Общее
Полное имя : C:Documents and SettingsАдминистраторРабочий столBakugan Mechtanium Surge_s04e01_SatRip by Drek.avi
Формат : AVI
Формат/Информация : Audio Video Interleave
Размер файла : 280 Мбайт
Продолжительность : 21 м.
Общий поток : 1847 Кбит/сек
Программа кодирования : VirtualDubMod 1.5.10.3 | www.virtualdub-fr.org || (build 2550/release)
Библиотека кодирования : VirtualDubMod build 2550/release
Видео
Идентификатор : 0
Формат : MPEG-4 Visual
Профиль формата : Advanced Simple@L5
Параметр BVOP формата : 2
Параметр QPel формата : Нет
Параметр GMC формата : Без точки перехода
Параметр матрицы формата : Выборочная
Режим смешивания : Сжатый битовый поток
Идентификатор кодека : XVID
Идентификатор кодека/Подсказка : XviD
Продолжительность : 21 м.
Битрейт : 1709 Кбит/сек
Ширина : 704 пикселя
Высота : 448 пикселей
Соотношение сторон : 1,571
Частота кадров : 25,000 кадров/сек
Цветовое пространство : YUV
Субдискретизация насыщенности : 4:2:0
Битовая глубина : 8 бит
Тип развёртки : Прогрессивная
Метод сжатия : С потерями
Бит/(Пиксели*Кадры) : 0.217
Размер потока : 259 Мбайт (93%)
Библиотека кодирования : XviD 64
Аудио
Идентификатор : 1
Формат : MPEG Audio
Версия формата : Version 1
Профиль формата : Layer 3
Идентификатор кодека : 55
Идентификатор кодека/Подсказка : MP3
Продолжительность : 21 м.
Вид битрейта : Постоянный
Битрейт : 128 Кбит/сек
Каналы : 2 канала
Частота : 48,0 КГц
Метод сжатия : С потерями
Размер потока : 19,4 Мбайт (7%)
Выравнивание : Соединение по промежуткам
Продолжительность промежутка : 40 мс. (1,00 видеокадр)
Время предзагрузки промежутка : 504 мс.
Библиотека кодирования : LAME3.99
Настройки программы : -m s -V 4 -q 2 -lowpass 17 -b 128
Скриншоты
Бакуган: Импульс Мектаниума / Bakugan: Mechtanium Surge [04x01-26 из 46] (2012) SATRipБакуган: Импульс Мектаниума / Bakugan: Mechtanium Surge [04x01-26 из 46] (2012) SATRipБакуган: Импульс Мектаниума / Bakugan: Mechtanium Surge [04x01-26 из 46] (2012) SATRipБакуган: Импульс Мектаниума / Bakugan: Mechtanium Surge [04x01-26 из 46] (2012) SATRip

Категория: Аниме

Торренты - Аниме