Видео Аниме Вельзевул / Вельзепуз / Beelzebub TV [60 из 60] (2011-2012) DTVRip [HWP] | Persona99
Вельзепуз / Вельзевул / Beelzebub


Вельзевул / Вельзепуз / Beelzebub TV [60 из 60] (2011-2012) DTVRip [HWP] | Persona99


Год выпуска: 2011
Страна: Япония
Жанр: приключения, комедия
Продолжительность: 60 эп x25 мин,


Перевод: Субтитры - Advantage & Fratelli
Русская озвучка:
(Любительский одноголосый) Persona99
Русские субтитры: есть


Режиссёр: Такамото Нобухиро
Снято по манге: Beelzebub
Автор оригинала: Тамура Рюхэй


Студия:Вельзевул / Вельзепуз / Beelzebub TV [60 из 60] (2011-2012) DTVRip [HWP] | Persona99


Описание:
Главный герой, страшный и сильный хулиган по имени Ога, однажды видит мужчину, тонущего в реке, и, недолго думая, спасает его. Но тут происходит странная вещь: мужчина распадается надвое, а внутри него оказывается ребенок. Ога, беспредельно добрый, хотя и суровый на вид, конечно, берет ребенка с собой. Впоследствии оказывается, что мальчик – порождение дьявола. И Огу теперь, как ни крути, его приемный отец и обязан его защищать и правильно воспитывать. Помогает ему в этом дивная красотка. @ Olfor
World Art


Качество: DTVRip / Тип видео: без хардсаба / Формат: AVI
Видео: 704x396, ~1300 Кбит/сек, 23.976 кадр/сек, XviD
Аудио 1: русский ~160 Кбит/сек, 48 КГц, стерео, MP3
Аудио 2: японский, ~160 Кбит/сек, 48 КГц, стерео, MP3

Вельзевул / Вельзепуз / Beelzebub TV [60 из 60] (2011-2012) DTVRip [HWP] | Persona99



Подробные тех. данные

General
Complete name : Beelzebub TVBeelzebub_TV_
Format : AVI
Format/Info : Audio Video Interleave
File size : 286 MiB
Duration : 24mn 30s
Overall bit rate : 1634 Kbps
Writing application : VirtualDubMod 1.5.10.2 (build 2540/release)
Writing library : VirtualDubMod build 2540/release

Video
Format : MPEG-4 Visual
Format profile : Streaming Video@L1
Format settings, BVOP : Yes
Format settings, QPel : No
Format settings, GMC : No warppoints
Format settings, Matrix : Default
Codec ID : XVID
Codec ID/Hint : XviD
Duration : 24mn 30s
Bit rate : 1300 Kbps
Width : 704 pixels
Height : 396 pixels
Display aspect ratio : 16/9
Frame rate : 23.976 fps
Resolution : 8 bits
Colorimetry : 4:2:0
Scan type : Progressive
Bits/(Pixel*Frame) : 0.194
Stream size : 228 MiB (80%)
Writing library : XviD 50

Audio #1
Format : MPEG Audio
Format version : Version 1
Format profile : Layer 3
Codec ID : 55
Codec ID/Hint : MP3
Duration : 24mn 30s
Bit rate mode : Constant
Bit rate : 160 Kbps
Channel(s) : 2 channels
Sampling rate : 48.0 KHz
Resolution : 16 bits
Stream size : 28.0 MiB (10%)
Alignment : Aligned on interleaves
Interleave, duration : 42 ms (1.00 video frame)
Interleave, preload duration : 504 ms

Audio #2
Format : MPEG Audio
Format version : Version 1
Format profile : Layer 3
Codec ID : 55
Codec ID/Hint : MP3
Duration : 24mn 30s
Bit rate mode : Constant
Bit rate : 160 Kbps
Minimum bit rate : 160 Kbps
Channel(s) : 2 channels
Sampling rate : 48.0 KHz
Resolution : 16 bits
Stream size : 28.0 MiB (10%)
Alignment : Aligned on interleaves
Interleave, duration : 42 ms (1.00 video frame)
Interleave, preload duration : 504 ms
Writing library : LAME3.98r
Encoding settings : CBR
Эпизоды:
01.I picked up The Devil King.
02.Say Hi to the BoB Brawler.
03.Are There Any Strong, Ruthless Bastards Around Here?
04.There is 1 Second Before the Demon Lord`s Floods Burst Forth.
05.There`s Nothing You Can`t Buy With Money.
06. Toys Have Arrived from the Demon World / We Played Doctor.
07.The Demon Lord makes his Debut at the Park.
08.Also Met.
09.Love is a Hurricane.
10.A Disciple Was Gained.
11.There Was Something Money Couldn`t Buy.
12.Konya wa nekasemasen.
13.Baby Beel`s Assessment Test / Hilda: Dear Great Demon Lord.
14.Is There a Special Move?
15.The Delinquents Have Changed into Swimsuits.
16.You`re Not a Bad Specimen of a Man.
17.How About Some Demon World Homework?
18.I`ve Quit Being the BoB Brawler!
19.The Doctor Has Arrived.
20.Everyone Assemble.
21.Who Do You Think Is Ishiyama`s Strongest?
22.Secluded Mountain Training.
23.You Kidding Me? The Demon Wold.
24.Welcome Back, Demon World!
25.The New Term Has Started!
26.May I Call You Brother?
27.Called a Magical Girl!
28.Let`s All Get Physicals!
29.What Are the 6 Holy Knights?
30.Who Are the 6 Holy Knights?
31.No Conclusion Was Reached!
32.What Has the Transfer Girl Done?
33.There Are Wounds in the Past.
34.Maids Run Amok.
35.Time for the Game to Begin!
36.Finally, the Deciding Battle!
37.That Man was a Teacher!
38.The Sibling Rivalry Has Begun.
39.His Brother was a Crybaby!
40.No Shoes, No Shirt, No Assassins.
41.On the Brink! What`ll We Do?!
42.It`s Time for Training!
43.Where Might My Brother Have Disappeared to?
44.I Must Become Stronger.
45.Play Games at Most One Hour a Day!
46.Super Burning Combination!
47.Sorry to Have Kept You Waiting.
48.I`m His Parent.
49.Beelzebub`s New Year`s Special! Beelbeel Journey to the West!
50.Today I`m Different on the Inside.
51.Komainu-sama is Watching You.
52.And Then There Were No Delinquents.
53.Baby Beel`s First School Uniform / Furuichi Falls in Love.
54.Black Baby Beel Grows Up!
55.I Have Lost My Pompadour / The Great Demon Lord Has Come.
56.Are You a Traitor? / Is This a Job for Men...
57.Won`t You Eat a Manju? / Won`t You Get in a Mixed Bath?
58.Akumano Academy is Open.
59.We`re the Strongest.
60.I Won`t Say Goodbye.

Скриншоты:

Вельзевул / Вельзепуз / Beelzebub TV [60 из 60] (2011-2012) DTVRip [HWP] | Persona99Вельзевул / Вельзепуз / Beelzebub TV [60 из 60] (2011-2012) DTVRip [HWP] | Persona99Вельзевул / Вельзепуз / Beelzebub TV [60 из 60] (2011-2012) DTVRip [HWP] | Persona99Вельзевул / Вельзепуз / Beelzebub TV [60 из 60] (2011-2012) DTVRip [HWP] | Persona99Вельзевул / Вельзепуз / Beelzebub TV [60 из 60] (2011-2012) DTVRip [HWP] | Persona99Вельзевул / Вельзепуз / Beelzebub TV [60 из 60] (2011-2012) DTVRip [HWP] | Persona99Вельзевул / Вельзепуз / Beelzebub TV [60 из 60] (2011-2012) DTVRip [HWP] | Persona99Вельзевул / Вельзепуз / Beelzebub TV [60 из 60] (2011-2012) DTVRip [HWP] | Persona99
Вельзевул / Вельзепуз / Beelzebub TV [60 из 60] (2011-2012) DTVRip [HWP] | Persona99Вельзевул / Вельзепуз / Beelzebub TV [60 из 60] (2011-2012) DTVRip [HWP] | Persona99Вельзевул / Вельзепуз / Beelzebub TV [60 из 60] (2011-2012) DTVRip [HWP] | Persona99Вельзевул / Вельзепуз / Beelzebub TV [60 из 60] (2011-2012) DTVRip [HWP] | Persona99Вельзевул / Вельзепуз / Beelzebub TV [60 из 60] (2011-2012) DTVRip [HWP] | Persona99Вельзевул / Вельзепуз / Beelzebub TV [60 из 60] (2011-2012) DTVRip [HWP] | Persona99Вельзевул / Вельзепуз / Beelzebub TV [60 из 60] (2011-2012) DTVRip [HWP] | Persona99



Релиз GSGroup
Вельзевул / Вельзепуз / Beelzebub TV [60 из 60] (2011-2012) DTVRip [HWP] | Persona99
Категория: Аниме

Торренты - Аниме