Видео Зарубежные фильмы Робот / Robot / Endhiran (2010) BDRip 720p | Лицензия
Робот / Robot / Endhiran (2010) BDRip 720p | Лицензия

Информация о фильме
Название: Робот
Оригинальное название: Endhiran / Robot
Год выхода: 2010
Жанр: фантастика, фэнтези, боевик, комедия, приключения
Режиссер: Шанкар Шанмугам
В ролях: Раджникант, Айшварья Рай, Денни Денгзонгпа, Карунас, Кочин Ганифа, Шрия Шарма, Сабу Сирил, Сантханам

О фильме:
Одаренный ученый создал робота, наделенного множеством способностей, который первый раз выходит в мир с некоторыми неожиданными и умопомрачительными последствиями...

Робот / Robot / Endhiran (2010) BDRip 720p | ЛицензияРобот / Robot / Endhiran (2010) BDRip 720p | Лицензия

Выпущено: Индия / Sun Pictures
Продолжительность: 02:57:11
Озвучивание: Профессиональное (многоголосое) [лицензия]

Файл
Формат: MKV
Качество: BDRip 720p [CHD]
Видео: 4890 kb/s, 1280x544
Аудио: Russian: AC3, 448 kb/s (6 ch) / Hindi: DTS, 1510 kb/s (6 ch)
Субтитры: Russian [R5, Stevvie, Forced]
Скачать: Сэмпл

MediaIndo
Complete name : Robot.2010.P.BDRip.720p.IRONCLUB.mkv
Format: Matroska
Format version: Version 2
File size: 8.48 GiB
Duration: 2h 57mn
Overall bit rate: 6 850 Kbps
Movie name: Robo (2010) - Released by IronClub.TV
Encoded date: UTC 2012-03-03 09:46:58
Writing application: mkvmerge v4.9.1 ('Ich will') сборка от Jul 11 2011 23:53:15
Writing library: libebml v1.2.1 + libmatroska v1.1.1

Video
ID: 1
Format: AVC
Format/Info: Advanced Video Codec
Format profile: High@L4.1
Format settings, CABAC: Yes
Format settings, ReFrames: 12 frames
Codec ID: V_MPEG4/ISO/AVC
Duration: 2h 57mn
Bit rate: 4 890 Kbps
Width: 1 280 pixels
Height: 544 pixels
Display aspect ratio: 2.35:1
Frame rate: 24.000 fps
Color space: YUV
Chroma subsampling: 4:2:0
Bit depth: 8 bits
Scan type: Progressive
Bits/(Pixel*Frame): 0.293
Stream size: 5.89 GiB (69%)
Title: Robo (2010) - Released by IronClub.TV
Writing library: x264 core 114 r1913 5fd3dce
Encoding settings: cabac=1 / ref=12 / deblock=1:-3:-3 / analyse=0x3:0x113 / me=umh / subme=9 / psy=1 / psy_rd=1.10:0.15 / mixed_ref=1 / me_range=32 / chroma_me=1 / trellis=2 / 8x8dct=1 / cqm=2 / deadzone=21,11 / fast_pskip=0 / chroma_qp_offset=-2 / threads=12 / sliced_threads=0 / nr=0 / decimate=1 / interlaced=0 / constrained_intra=0 / bframes=6 / b_pyramid=2 / b_adapt=2 / b_bias=0 / direct=3 / weightb=1 / open_gop=0 / weightp=2 / keyint=250 / keyint_min=24 / scenecut=40 / intra_refresh=0 / rc_lookahead=60 / rc=2pass / mbtree=1 / bitrate=4890 / ratetol=1.0 / qcomp=0.60 / qpmin=1 / qpmax=63 / qpstep=4 / cplxblur=20.0 / qblur=0.5 / vbv_maxrate=40000 / vbv_bufsize=30000 / nal_hrd=none / ip_ratio=1.40 / aq=1:0.80
Language: Telugu
Default: Yes
Forced: Yes

Audio #1
ID: 2
Format: AC-3
Format/Info: Audio Coding 3
Mode extension: CM (complete main)
Codec ID: A_AC3
Duration: 2h 57mn
Bit rate mode: Constant
Bit rate: 448 Kbps
Channel(s): 6 channels
Channel positions: Front: L C R, Side: L R, LFE
Sampling rate: 48.0 KHz
Bit depth: 16 bits
Compression mode: Lossy
Stream size: 568 MiB (7%)
Title: DD 5.1 @ 448 kbps - MVO, R5
Language: Russian
Default: Yes
Forced: Yes

Audio #2
ID: 3
Format: DTS
Format/Info: Digital Theater Systems
Codec ID: A_DTS
Duration: 2h 57mn
Bit rate mode: Constant
Bit rate: 1 510 Kbps
Channel(s): 6 channels
Channel positions: Front: L C R, Side: L R, LFE
Sampling rate: 48.0 KHz
Bit depth: 24 bits
Compression mode: Lossy
Stream size: 1.87 GiB (22%)
Title: DTS 5.1 @ 1536 kbps
Language: Telugu
Default: No
Forced: No

Text #1
ID: 4
Format: UTF-8
Codec ID: S_TEXT/UTF8
Codec ID/Info: UTF-8 Plain Text
Title: R5
Language: Russian
Default: No
Forced: No

Text #2
ID: 5
Format: UTF-8
Codec ID: S_TEXT/UTF8
Codec ID/Info: UTF-8 Plain Text
Title: Full
Language: Russian
Default: No
Forced: No

Text #3
ID: 6
Format: UTF-8
Codec ID: S_TEXT/UTF8
Codec ID/Info: UTF-8 Plain Text
Title: Forced
Language: Russian
Default: No
Forced : No


Скриншоты

Робот / Robot / Endhiran (2010) BDRip 720p | ЛицензияРобот / Robot / Endhiran (2010) BDRip 720p | ЛицензияРобот / Robot / Endhiran (2010) BDRip 720p | ЛицензияРобот / Robot / Endhiran (2010) BDRip 720p | ЛицензияРобот / Robot / Endhiran (2010) BDRip 720p | Лицензия
Скриншоты
Робот / Robot / Endhiran (2010) BDRip 720p | ЛицензияРобот / Robot / Endhiran (2010) BDRip 720p | ЛицензияРобот / Robot / Endhiran (2010) BDRip 720p | Лицензия

Релиз от:Робот / Robot / Endhiran (2010) BDRip 720p | Лицензия
Категория: Зарубежные фильмы

Торренты - Зарубежные фильмы