Видео Зарубежные фильмы Вышибала / Goon (2011) HDTV | Звук с TS
Вышибала / Goon (2011) HDTV | Звук с TS

Информация о фильме:
Название: Вышибала
Оригинальное название: Goon
Год выхода: 2011
Жанр: комедия, спорт
Режиссер: Майкл Даус
В ролях: Шонн Уильям Скотт, Джей Барушель, Лив Шрайбер, Юджин Леви, Элисон Пилл, Марк-Андре Гронден, Ким Коутс, Дэвид Петкау, Шон Скин, Джонатан Черри

О фильме: Даг — простой вышибала, работающий в провинциальном баре. Однажды, ввязавшись в драку на хоккейном матче с одним из игроков, он попадает в поле зрения тренера команды мастеров. Ему срочно нужен игрок, который сможет защитить на льду ведущего нападающего клуба. Даг не умеет стоять на коньках, но этому можно научиться, зато в драке ему нет равных! У команды-главного конкурента есть свой тафгай, Росс «Босс-Мать-Его» Риа, от одного вида которого дрожит вся хоккейная лига. Дагу и Россу предстоит сойтись в одном матче. Наш герой, с помощью своего друга, делает головокружительную карьеру, сплотив вокруг себя всю команду, и завоевывает любовь самой лучшей девушки на свете. С точки зрения Дага, конечно.

Вышибала / Goon (2011) HDTV | Звук с TSВышибала / Goon (2011) HDTV | Звук с TS

Выпущено: США, Канада
Продолжительность: 01:31:40
Озвучивание: Дублированное [звук с TS]

Файл:
Формат: MKV
Качество: HDTV 720p
Видео: 4200 Kbps, 1280x720
Аудио: Russian: AC3, 192 Кбит/сек (2 ch) / English AC3, 384 kb/s (6 ch)
Размер: 3.03 GB
Скачать: Сэмпл

MediaInfo
Goon 2011 720p.mkv
General
Unique ID: 178832397100124391593151270404339612888 (0x8689DDEA8C472F2C9697D3C93CB53CD8)
Complete name: F:GoonGoon 2011 720p.mkv
Format: Matroska
Format version: Version 2
File size: 3.03 GiB
Duration: 1h 31mn
Overall bit rate: 4 726 Kbps
Encoded date: UTC 2012-03-01 17:40:22
Writing application: mkvmerge v5.0.1 ('Es ist Sommer') built on Oct 9 2011 11:55:43
Writing library: libebml v1.2.2 + libmatroska v1.3.0
Video #1
ID: 1
Format: AVC
Format/Info: Advanced Video Codec
Format profile: High@L4.1
Format settings, CABAC: Yes
Format settings, ReFrames: 1 frame
Codec ID: V_MPEG4/ISO/AVC
Duration: 1h 31mn
Bit rate: 4 200 Kbps
Width: 1 280 pixels
Height: 720 pixels
Display aspect ratio: 16:9
Frame rate: 23.976 fps
Color space: YUV
Chroma subsampling: 4:2:0
Bit depth: 8 bits
Scan type: Progressive
Bits/(Pixel*Frame): 0.190
Stream size: 2.60 GiB (86%)
Writing library: x264 core 68 r1195bm 5d75a9b
Encoding settings: cabac=1 / ref=1 / deblock=1:0:0 / analyse=0x3:0x13 / me=umh / subme=7 / psy_rd=0.0:0.0 / mixed_ref=0 / me_range=16 / chroma_me=1 / trellis=1 / 8x8dct=1 / cqm=0 / deadzone=21,11 / chroma_qp_offset=0 / threads=1 / thread_queue=1 / nr=0 / decimate=1 / mbaff=0 / bframes=0 / keyint=250 / keyint_min=25 / scenecut=40 / rc=abr / bitrate=4200 / ratetol=1.0 / qcomp=0.60 / qpmin=10 / qpmax=51 / qpstep=4 / ip_ratio=1.40 / aq=2:1.00
Audio #2
ID: 2
Format: AC-3
Format/Info: Audio Coding 3
Mode extension: CM (complete main)
Codec ID: A_AC3
Duration: 1h 31mn
Bit rate mode: Constant
Bit rate: 192 Kbps
Channel(s): 2 channels
Channel positions: Front: L R
Sampling rate: 48.0 KHz
Bit depth: 16 bits
Compression mode: Lossy
Stream size: 126 MiB (4%)
Language: Russian
Audio #3
ID: 3
Format: AC-3
Format/Info: Audio Coding 3
Mode extension: CM (complete main)
Codec ID: A_AC3
Duration: 1h 31mn
Bit rate mode: Constant
Bit rate: 384 Kbps
Channel(s): 6 channels
Channel positions: Front: L C R, Side: L R, LFE
Sampling rate: 48.0 KHz
Bit depth: 16 bits
Compression mode: Lossy
Stream size :252 MiB (8%)


Скриншоты

Вышибала / Goon (2011) HDTV | Звук с TSВышибала / Goon (2011) HDTV | Звук с TSВышибала / Goon (2011) HDTV | Звук с TSВышибала / Goon (2011) HDTV | Звук с TSВышибала / Goon (2011) HDTV | Звук с TSВышибала / Goon (2011) HDTV | Звук с TS
Скриншоты
Вышибала / Goon (2011) HDTV | Звук с TSВышибала / Goon (2011) HDTV | Звук с TSВышибала / Goon (2011) HDTV | Звук с TS

Категория: Зарубежные фильмы

Торренты - Зарубежные фильмы