Видео Зарубежные фильмы Четыре мушкетера / The Four Musketeers (1974) BDRip 720p от FREEISLAND
Четыре мушкетера / The Four Musketeers (1974) BDRip 720p от FREEISLAND


Информация о фильме
Название:Четыре мушкетера
Оригинальное название:The Four Musketeers
Год выхода:1974
Жанр:боевик, мелодрама, приключения
Режиссер:Ричард Лестер
В ролях:Оливер Рид, Рэкел Уэлч, Ричард Чемберлен, Майкл Йорк, Фрэнк Финлей, Кристофер Ли, Джеральдин Чаплин, Жан-Пьер Кассель, Фэй Данауэй, Рой Киннер...

О фильме:
Королевские мушкетеры Д`Артаньян, Атос, Портос и Арамис — отнюдь не святые. Вино, женщины и тугой кошелек порой заставляют забыть о долге. Но о чести — никогда! Пока старые друзья вместе, любые происки коварных агентов кардинала будут разбиты, ведь девиз мушкетеров — «Один за всех и все за одного!»


Четыре мушкетера / The Four Musketeers (1974) BDRip 720p от FREEISLANDЧетыре мушкетера / The Four Musketeers (1974) BDRip 720p от FREEISLAND

Страна:Испания, Панама
Студия:Este Films
Продолжительность:01:46:38
Перевод:Профессиональный (двухголосый закадровый)

Файл
Кодек:H.264
Качество:BDRip 720p
Видео:5262 Кбит/сек, 1280*720 (16:9), в 24,000 кадра/сек, AVC (High@L4.1)
Звук:
Russian, 224 Кбит/сек, 48,0 КГц, 16 бит, 2 канала, AC-3
English, 384 Кбит/сек, 48,0 КГц, 16 бит, 2 канала, AC-3

Четыре мушкетера / The Four Musketeers (1974) BDRip 720p от FREEISLAND
MI:
Общее
Уникальный идентификатор : 244969844251332657769633363236371344533 (0xB84B79D16845220F867B07456DB8AC95)
Полное имя : E:торрентThe Four Musketeers(1974) BDRip720p-F.HD.mkv
Формат : Matroska
Версия формата : Version 2
Размер файла : 4,37 Гбайт
Продолжительность : 1 ч. 46 м.
Общий поток : 5872 Кбит/сек
Дата кодирования : UTC 2012-03-28 18:49:33
Программа кодирования : mkvmerge v5.4.0 ('Piper') built on Mar 10 2012 13:34:39
Библиотека кодирования : libebml v1.2.3 + libmatroska v1.3.0

Видео
Идентификатор : 1
Формат : AVC
Формат/Информация : Advanced Video Codec
Профиль формата : High@L4.1
Параметр CABAC формата : Да
Параметр ReFrames формата : 9 кадров
Идентификатор кодека : V_MPEG4/ISO/AVC
Продолжительность : 1 ч. 46 м.
Битрейт : 5262 Кбит/сек
Ширина : 1280 пикселей
Высота : 720 пикселей
Соотношение сторон : 16:9
Частота кадров : 24,000 кадра/сек
Цветовое пространство : YUV
Субдискретизация насыщенности : 4:2:0
Битовая глубина : 8 бит
Тип развёртки : Прогрессивная
Бит/(Пиксели*Кадры) : 0.238
Размер потока : 3,83 Гбайт (88%)
Заголовок : FREEISLAND
Библиотека кодирования : x264 core 122 r2184 5c85e0a
Настройки программы : cabac=1 / ref=9 / deblock=1:-2:-1 / analyse=0x3:0x113 / me=umh / subme=10 / psy=1 / psy_rd=1.05:0.15 / mixed_ref=1 / me_range=32 / chroma_me=1 / trellis=2 / 8x8dct=1 / cqm=0 / deadzone=21,11 / fast_pskip=0 / chroma_qp_offset=-3 / threads=6 / sliced_threads=0 / nr=0 / decimate=1 / interlaced=0 / bluray_compat=0 / constrained_intra=0 / bframes=7 / b_pyramid=2 / b_adapt=2 / b_bias=0 / direct=3 / weightb=1 / open_gop=0 / weightp=2 / keyint=240 / keyint_min=22 / scenecut=40 / intra_refresh=0 / rc=2pass / mbtree=0 / bitrate=5262 / ratetol=1.0 / qcomp=0.70 / qpmin=0 / qpmax=69 / qpstep=4 / cplxblur=20.0 / qblur=0.5 / ip_ratio=1.40 / pb_ratio=1.30 / aq=2:0.90
Язык : English
Основные цвета : BT.709-5, BT.1361, IEC 61966-2-4, SMPTE RP177
Характеристики трансфера : BT.709-5, BT.1361
Коэффициенты матрицы : BT.709-5, BT.1361, IEC 61966-2-4 709, SMPTE RP177

Аудио #1
Идентификатор : 2
Формат : AC-3
Формат/Информация : Audio Coding 3
Профиль формата : Dolby Digital
Расширение режима : CM (complete main)
Идентификатор кодека : A_AC3
Продолжительность : 1 ч. 46 м.
Вид битрейта : Постоянный
Битрейт : 224 Кбит/сек
Каналы : 2 канала
Расположение каналов : Front: L R
Частота : 48,0 КГц
Битовая глубина : 16 бит
Метод сжатия : С потерями
Размер потока : 171 Мбайт (4%)
Язык : Russian

Аудио #2
Идентификатор : 3
Формат : AC-3
Формат/Информация : Audio Coding 3
Расширение режима : CM (complete main)
Идентификатор кодека : A_AC3
Продолжительность : 1 ч. 46 м.
Вид битрейта : Постоянный
Битрейт : 384 Кбит/сек
Каналы : 2 канала
Расположение каналов : Front: L R
Частота : 48,0 КГц
Битовая глубина : 16 бит
Метод сжатия : С потерями
Размер потока : 293 Мбайт (7%)
Язык : English

Меню
00:00:00.000 : en:Chapter 01
00:07:52.750 : en:Chapter 02
00:16:55.250 : en:Chapter 03
00:25:59.500 : en:Chapter 04
00:36:54.416 : en:Chapter 05
00:46:19.083 : en:Chapter 06
00:56:09.583 : en:Chapter 07
01:06:11.708 : en:Chapter 08
01:11:35.916 : en:Chapter 09
01:19:21.875 : en:Chapter 10
01:29:54.708 : en:Chapter 11
01:37:35.208 : en:Chapter 12
01:46:37.791 : en:Chapter 13
Скриншоты
Четыре мушкетера / The Four Musketeers (1974) BDRip 720p от FREEISLANDЧетыре мушкетера / The Four Musketeers (1974) BDRip 720p от FREEISLANDЧетыре мушкетера / The Four Musketeers (1974) BDRip 720p от FREEISLAND
Четыре мушкетера / The Four Musketeers (1974) BDRip 720p от FREEISLANDЧетыре мушкетера / The Four Musketeers (1974) BDRip 720p от FREEISLANDЧетыре мушкетера / The Four Musketeers (1974) BDRip 720p от FREEISLAND

Релиз от:Четыре мушкетера / The Four Musketeers (1974) BDRip 720p от FREEISLAND
Категория: Зарубежные фильмы

Торренты - Зарубежные фильмы