Видео Зарубежные фильмы Между ангелом и бесом / Les anges gardiens (1995) DVDRip-AVC от PowerTracker
Между ангелом и бесом / Les anges gardiens (1995) DVDRip-AVC от PowerTracker

Жанр:боевик, мелодрама, комедия, криминал
Страна:Франция Между ангелом и бесом / Les anges gardiens (1995) DVDRip-AVC от PowerTracker
Режиссер:Жан-Мари Пуаре
В ролях:Жерар Депардье, Кристиан Клавье, Ева Гримальди, Ив Ренье, Фрэнки Син, Исе Тран, Анна Гейлор, Дженнифер Херрера, Даррен Шахлави, Ева Герцигова, Оливье Ашар, Ариэль Семенофф, Жан Шампьон, Julien Courbet, Мариз Деол, Alexandre Eskimo, Лорен Гендрон, Armelle Hourlier, Лорен Жобер, Стефани Жобер

Сюжет фильма:Владелец знаменитого парижского кабаре "Карко", любимец женщин Антуан Карко, внезапно оказывается втянутым в головокружительную операцию по спасению маленького китайского мальчика Бао. Карко вылетает в Гонконг за ребенком и значительной суммой денег. За ним и Бао гонится мафия, но Карко умудряется с помощью священника Тарэна вывезти мальчика в Париж. Но помимо мафии, Карко и Тарэна преследуют еще и ангелы... Только Карко - его совесть, ангел-хранитель, а Тарэна - ангел-искуситель...

Мировая премьера:11 октября 1995

Между ангелом и бесом / Les anges gardiens (1995) DVDRip-AVC от PowerTrackerМежду ангелом и бесом / Les anges gardiens (1995) DVDRip-AVC от PowerTracker

Продолжительность:01:46:54
Качество видео:DVDRip-AVC

Видео:кодек:x264, размер кадра:700x432@995x432, битрейт:2470 кб/с, bit/pixel:0.327

Аудио #1:язык:Русский Между ангелом и бесом / Les anges gardiens (1995) DVDRip-AVC от PowerTracker , перевод:многоголосый закадровый (профессиональный) [R5], кодек:AC3 5.1, битрейт:384 кб/с
Аудио #2:язык:Русский Между ангелом и бесом / Les anges gardiens (1995) DVDRip-AVC от PowerTracker , перевод:многоголосый закадровый (профессиональный) [РТР], кодек:AC3 2.0, битрейт:192 кб/с
Аудио #3:язык:Русский Между ангелом и бесом / Les anges gardiens (1995) DVDRip-AVC от PowerTracker , перевод:двухголосый закадровый (профессиональный) [ОРТ], кодек:AC3 2.0, битрейт:192 кб/с
Аудио #4:язык:Английский Между ангелом и бесом / Les anges gardiens (1995) DVDRip-AVC от PowerTracker , перевод:дублированный (дубляж), кодек:AC3 2.0, битрейт:192 кб/с
Аудио #5:язык:Французский Между ангелом и бесом / Les anges gardiens (1995) DVDRip-AVC от PowerTracker , перевод:оригинал, кодек:AC3 5.1, битрейт:448 кб/с

Субтитры #1:тип:вшитые, отключаемые, формат:SRT, язык:Русский Между ангелом и бесом / Les anges gardiens (1995) DVDRip-AVC от PowerTracker
Субтитры #2:тип:вшитые, отключаемые, формат:SRT, язык:Английский Между ангелом и бесом / Les anges gardiens (1995) DVDRip-AVC от PowerTracker
Субтитры #3:тип:вшитые, отключаемые, формат:SRT, язык:Французский Между ангелом и бесом / Les anges gardiens (1995) DVDRip-AVC от PowerTracker

Релиз группы:Между ангелом и бесом / Les anges gardiens (1995) DVDRip-AVC от PowerTrackerАвтор рипа:Между ангелом и бесом / Les anges gardiens (1995) DVDRip-AVC от PowerTracker

MediaInfo
Общее
Уникальный идентификатор : 181150473801153059247506087863711248134 (0x88484FEBE764FAABAE196CBF3F012F06)
Формат : Matroska
Версия формата : Version 2
Размер файла : 2,90 Гбайт
Продолжительность : 1 ч. 46 м.
Общий поток : 3880 Кбит/сек
Название фильма : Между ангелом и бесом / Les anges gardiens (1995) DVDRip-AVC rip by tise
Дата кодирования : UTC 2012-03-29 17:29:40
Программа кодирования : mkvmerge v5.4.0 ('Piper') built on Mar 10 2012 13:34:39
Библиотека кодирования : libebml v1.2.3 + libmatroska v1.3.0

Видео
Идентификатор : 1
Формат : AVC
Формат/Информация : Advanced Video Codec
Профиль формата : High@L4.1
Параметр CABAC формата : Да
Параметр ReFrames формата : 12 кадров
Идентификатор кодека : V_MPEG4/ISO/AVC
Продолжительность : 1 ч. 46 м.
Битрейт : 2470 Кбит/сек
Ширина : 700 пикселей
Высота : 432 пикселя
Соотношение сторон : 2,35:1
Соотношение сторон в оригинале : 2,35:1
Частота кадров : 25,000 кадров/сек
Цветовое пространство : YUV
Субдискретизация насыщенности : 4:2:0
Битовая глубина : 8 бит
Тип развёртки : Прогрессивная
Бит/(Пиксели*Кадры) : 0.327
Размер потока : 1,79 Гбайт (62%)
Библиотека кодирования : x264 core 120 r2164 da19765
Настройки программы : cabac=1 / ref=12 / deblock=1:-3:-3 / analyse=0x3:0x133 / me=umh / subme=10 / psy=1 / psy_rd=1.00:0.10 / mixed_ref=1 / me_range=48 / chroma_me=1 / trellis=2 / 8x8dct=1 / cqm=0 / deadzone=21,11 / fast_pskip=0 / chroma_qp_offset=-3 / threads=6 / sliced_threads=0 / nr=0 / decimate=1 / interlaced=0 / bluray_compat=0 / constrained_intra=0 / bframes=11 / b_pyramid=2 / b_adapt=2 / b_bias=0 / direct=3 / weightb=1 / open_gop=0 / weightp=2 / keyint=250 / keyint_min=23 / scenecut=40 / intra_refresh=0 / rc_lookahead=40 / rc=2pass / mbtree=1 / bitrate=2470 / ratetol=1.0 / qcomp=0.60 / qpmin=10 / qpmax=51 / qpstep=4 / cplxblur=20.0 / qblur=0.5 / ip_ratio=1.40 / aq=1:1.00
Default : Да
Forced : Нет

Аудио #1
Идентификатор : 2
Формат : AC-3
Формат/Информация : Audio Coding 3
Расширение режима : CM (complete main)
Идентификатор кодека : A_AC3
Продолжительность : 1 ч. 46 м.
Вид битрейта : Постоянный
Битрейт : 384 Кбит/сек
Каналы : 6 каналов
Расположение каналов : Front: L C R, Side: L R, LFE
Частота : 48,0 КГц
Битовая глубина : 16 бит
Метод сжатия : С потерями
Задержка видео : 25 мс.
Размер потока : 294 Мбайт (10%)
Заголовок : многоголосый закадровый (профессиональный) [R5]
Язык : Russian
Default : Да
Forced : Нет

Аудио #2
Идентификатор : 3
Формат : AC-3
Формат/Информация : Audio Coding 3
Расширение режима : CM (complete main)
Идентификатор кодека : A_AC3
Продолжительность : 1 ч. 46 м.
Вид битрейта : Постоянный
Битрейт : 192 Кбит/сек
Каналы : 2 канала
Расположение каналов : Front: L R
Частота : 48,0 КГц
Битовая глубина : 16 бит
Метод сжатия : С потерями
Задержка видео : 25 мс.
Размер потока : 147 Мбайт (5%)
Заголовок : многоголосый закадровый (профессиональный) [РТР]
Язык : Russian
Default : Нет
Forced : Нет

Аудио #3
Идентификатор : 4
Формат : AC-3
Формат/Информация : Audio Coding 3
Расширение режима : CM (complete main)
Идентификатор кодека : A_AC3
Продолжительность : 1 ч. 46 м.
Вид битрейта : Постоянный
Битрейт : 192 Кбит/сек
Каналы : 2 канала
Расположение каналов : Front: L R
Частота : 48,0 КГц
Битовая глубина : 16 бит
Метод сжатия : С потерями
Задержка видео : 25 мс.
Размер потока : 147 Мбайт (5%)
Заголовок : двухголосый закадровый (профессиональный) [ОРТ]
Язык : Russian
Default : Нет
Forced : Нет

Аудио #4
Идентификатор : 5
Формат : AC-3
Формат/Информация : Audio Coding 3
Профиль формата : Dolby Digital
Расширение режима : CM (complete main)
Идентификатор кодека : A_AC3
Продолжительность : 1 ч. 46 м.
Вид битрейта : Постоянный
Битрейт : 192 Кбит/сек
Каналы : 2 канала
Расположение каналов : Front: L R
Частота : 48,0 КГц
Битовая глубина : 16 бит
Метод сжатия : С потерями
Задержка видео : 25 мс.
Размер потока : 147 Мбайт (5%)
Заголовок : дублированный (дубляж)
Язык : English
Default : Нет
Forced : Нет

Аудио #5
Идентификатор : 6
Формат : AC-3
Формат/Информация : Audio Coding 3
Расширение режима : CM (complete main)
Идентификатор кодека : A_AC3
Продолжительность : 1 ч. 46 м.
Вид битрейта : Постоянный
Битрейт : 448 Кбит/сек
Каналы : 6 каналов
Расположение каналов : Front: L C R, Side: L R, LFE
Частота : 48,0 КГц
Битовая глубина : 16 бит
Метод сжатия : С потерями
Задержка видео : 25 мс.
Размер потока : 343 Мбайт (12%)
Заголовок : оригинал
Язык : French
Default : Нет
Forced : Нет

Текст #1
Идентификатор : 7
Формат : UTF-8
Идентификатор кодека : S_TEXT/UTF8
Идентификатор кодека/Информация : UTF-8 Plain Text
Язык : Russian
Default : Да
Forced : Нет

Текст #2
Идентификатор : 8
Формат : UTF-8
Идентификатор кодека : S_TEXT/UTF8
Идентификатор кодека/Информация : UTF-8 Plain Text
Язык : English
Default : Нет
Forced : Нет

Текст #3
Идентификатор : 9
Формат : UTF-8
Идентификатор кодека : S_TEXT/UTF8
Идентификатор кодека/Информация : UTF-8 Plain Text
Язык : French
Default : Нет
Forced : Нет

Скриншоты
Между ангелом и бесом / Les anges gardiens (1995) DVDRip-AVC от PowerTrackerМежду ангелом и бесом / Les anges gardiens (1995) DVDRip-AVC от PowerTrackerМежду ангелом и бесом / Les anges gardiens (1995) DVDRip-AVC от PowerTracker
Между ангелом и бесом / Les anges gardiens (1995) DVDRip-AVC от PowerTrackerМежду ангелом и бесом / Les anges gardiens (1995) DVDRip-AVC от PowerTrackerМежду ангелом и бесом / Les anges gardiens (1995) DVDRip-AVC от PowerTracker

Категория: Зарубежные фильмы

Торренты - Зарубежные фильмы