Видео Наши фильмы Ворошиловский стрелок (1999) DVDRip
Ворошиловский стрелок (1999) DVDRip

Информация о фильме
Название:Ворошиловский стрелок
Год выхода:1999
Жанр:Драма, криминал
Режиссер:Станислав Говорухин
В ролях:Михаил Ульянов, Анна Синякина, Александр Пороховщиков, Сергей Гармаш, Ирина Розанова, Марат Башаров, Алексей Макаров, Илья Древнов, Владислав Галкин, Владимир Семаго

О фильме:
Пенсионер, железнодорожник в отставке, скромно живёт со своей внучкой Катей. В соседнем доме постоянно собираются трое молодых бездельников, чувствующие себя безнаказанными хозяевами жизни. Однажды они хитростью заманили Катю к себе, где изнасиловали. Поначалу насильников арестовывают, однако отец одного из них — большой милицейский начальник — освобождает их. Не добившись справедливости законным путём, Иван Фёдорович покупает оружие у местной мафии, после чего сам становится судьёй. Когда, казалось, его поймают с поличным, на выручку пришёл честный участковый…


Ворошиловский стрелок (1999) DVDRipВорошиловский стрелок (1999) DVDRip
Страна:Россия
Студия:НТВ-Профит
Продолжительность:01:34:39
Перевод:Русский

Файл
Кодек:Xvid
Качество:DVDRip
Видео:720x544, 839 Кбит/с
Звук:
MP3, 2 ch, 128 Кбит/с

MI
General
Complete name : Ворошиловский стрелок.avi
Format : AVI
Format/Info : Audio Video Interleave
File size : 663 MiB
Duration : 1h 34mn
Overall bit rate : 979 Kbps
Writing application : MEncoder SVN-r30881(20100311-gcc4.3.3)
Writing library : MPlayer

Video
ID : 0
Format : MPEG-4 Visual
Format profile : Advanced Simple@L5
Format settings, BVOP : 2
Format settings, QPel : No
Format settings, GMC : No warppoints
Format settings, Matrix : Default (H.263)
Codec ID : XVID
Codec ID/Hint : XviD
Duration : 1h 34mn
Bit rate : 839 Kbps
Width : 720 pixels
Height : 544 pixels
Display aspect ratio : 4:3
Frame rate : 25.000 fps
Color space : YUV
Chroma subsampling : 4:2:0
Bit depth : 8 bits
Scan type : Progressive
Compression mode : Lossy
Bits/(Pixel*Frame) : 0.086
Stream size : 568 MiB (86%)
Writing library : XviD 1.2.1 (UTC 2008-12-04)

Audio
ID : 1
Format : MPEG Audio
Format version : Version 1
Format profile : Layer 3
Mode : Joint stereo
Mode extension : MS Stereo
Codec ID : 55
Codec ID/Hint : MP3
Duration : 1h 34mn
Bit rate mode : Constant
Bit rate : 128 Kbps
Channel(s) : 2 channels
Sampling rate : 44.1 KHz
Compression mode : Lossy
Delay relative to video : 40ms
Stream size : 86.7 MiB (13%)
Alignment : Aligned on interleaves
Interleave, duration : 26 ms (0.65 video frame)
Interleave, preload duration : 522 ms
Writing library : LAME3.98



Скриншоты
Ворошиловский стрелок (1999) DVDRipВорошиловский стрелок (1999) DVDRipВорошиловский стрелок (1999) DVDRipВорошиловский стрелок (1999) DVDRip

Категория: Наши фильмы

Торренты - Наши фильмы