Видео Наши фильмы Ёлки 2 (2011) BDRip-AVC от PowerTracker
Ёлки 2 (2011) BDRip-AVC от PowerTracker

Ёлки 2 (2011) BDRip-AVC от PowerTracker

Жанр:мелодрама, комедия, семейный
Страна:Россия Ёлки 2 (2011) BDRip-AVC от PowerTracker
Режиссер:Дмитрий Киселёв, Александр Баранов, Александр Котт
В ролях:Сергей Светлаков, Иван Ургант, Вера Брежнева, Сергей Безруков, Владимир Меньшов, Гоша Куценко, Александр Головин, Виктор Вержбицкий, Алексей Петренко, Петр Федоров

Сюжет фильма:За этот год много чего произошло, но наступит день, который всё расставит на свои места. Продолжение новогодних историй, которые происходили в жизни героев в фильме «Ёлки».

Мировая премьера:15 декабря 2011
Российская премьера:15 декабря 2011, «Bazelevs Distribution»

Ёлки 2 (2011) BDRip-AVC от PowerTrackerЁлки 2 (2011) BDRip-AVC от PowerTracker

Продолжительность:01:40:19
Качество видео:BDRip-AVC
Видео:кодек:x264, размер кадра:960x540, битрейт:1681 кб/с, bit/pixel:0.135
Аудио:язык:Русский Ёлки 2 (2011) BDRip-AVC от PowerTracker , перевод:оригинал, кодек:AC3 5.1, битрейт:384.00 кб/с

Ёлки 2 (2011) BDRip-AVC от PowerTracker&Ёлки 2 (2011) BDRip-AVC от PowerTracker

MediaInfo
Общее
Уникальный идентификатор : 246763633425184629505796503080930181994 (0xB9A4F273D4A6FF198BBBC73554BD036A)
Полное имя : D:Yolki 2.2011.BDRip-AVC.PT.mkv
Формат : Matroska
Версия формата : Version 2
Размер файла : 1,45 Гбайт
Продолжительность : 1 ч. 40 м.
Общий поток : 2066 Кбит/сек
Название фильма : Ёлки 2 (2011) BDRip-AVC rip by rulya74
Дата кодирования : UTC 2012-03-28 05:00:28
Программа кодирования : mkvmerge v5.2.1 ('A Far Off Place') built on Jan 2 2012 23:21:10
Библиотека кодирования : libebml v1.2.3 + libmatroska v1.3.0

Видео
Идентификатор : 1
Формат : AVC
Формат/Информация : Advanced Video Codec
Профиль формата : High@L4.1
Параметр CABAC формата : Да
Параметр ReFrames формата : 10 кадров
Идентификатор кодека : V_MPEG4/ISO/AVC
Продолжительность : 1 ч. 40 м.
Битрейт : 1681 Кбит/сек
Ширина : 960 пикселей
Высота : 540 пикселей
Соотношение сторон : 16:9
Частота кадров : 23,976 кадра/сек
Цветовое пространство : YUV
Субдискретизация насыщенности : 4:2:0
Битовая глубина : 8 бит
Тип развёртки : Прогрессивная
Бит/(Пиксели*Кадры) : 0.135
Размер потока : 1,15 Гбайт (79%)
Библиотека кодирования : x264 core 120 r2164 da19765
Настройки программы : cabac=1 / ref=10 / deblock=1:-3:-3 / analyse=0x3:0x113 / me=umh / subme=9 / psy=1 / psy_rd=1.00:0.00 / mixed_ref=1 / me_range=32 / chroma_me=1 / trellis=2 / 8x8dct=1 / cqm=0 / deadzone=21,11 / fast_pskip=1 / chroma_qp_offset=-2 / threads=6 / sliced_threads=0 / nr=0 / decimate=1 / interlaced=0 / bluray_compat=0 / constrained_intra=0 / bframes=11 / b_pyramid=2 / b_adapt=1 / b_bias=0 / direct=3 / weightb=1 / open_gop=0 / weightp=2 / keyint=240 / keyint_min=22 / scenecut=40 / intra_refresh=0 / rc=2pass / mbtree=0 / bitrate=1681 / ratetol=1.0 / qcomp=0.60 / qpmin=10 / qpmax=51 / qpstep=4 / cplxblur=20.0 / qblur=0.5 / ip_ratio=1.40 / pb_ratio=1.30 / aq=1:1.00
Default : Да
Forced : Нет

Аудио
Идентификатор : 2
Формат : AC-3
Формат/Информация : Audio Coding 3
Расширение режима : CM (complete main)
Идентификатор кодека : A_AC3
Продолжительность : 1 ч. 40 м.
Вид битрейта : Постоянный
Битрейт : 384 Кбит/сек
Каналы : 6 каналов
Расположение каналов : Front: L C R, Side: L R, LFE
Частота : 48,0 КГц
Битовая глубина : 16 бит
Метод сжатия : С потерями
Размер потока : 276 Мбайт (19%)
Заголовок : Оригинал
Язык : Russian
Default : Да
Forced : Нет
Скриншоты
Ёлки 2 (2011) BDRip-AVC от PowerTrackerЁлки 2 (2011) BDRip-AVC от PowerTrackerЁлки 2 (2011) BDRip-AVC от PowerTracker
Ёлки 2 (2011) BDRip-AVC от PowerTrackerЁлки 2 (2011) BDRip-AVC от PowerTrackerЁлки 2 (2011) BDRip-AVC от PowerTracker

Категория: Наши фильмы

Торренты - Наши фильмы