Видео Наши фильмы Август. Восьмого (2012) BDRip 1080p от NOLIMITS-TEAM
Август. Восьмого (2012) BDRip 1080p от NOLIMITS-TEAM
Август. Восьмого (2012) BDRip 1080p от NOLIMITS-TEAM

Август. Восьмого (2011) BDRip 1080p от NOLIMITS-TEAM


- Информация о фильме:

Оригинальное название: Август. Восьмого
Год выхода: 2012
Жанр: драма, военный
Режиссер: Джаник Файзиев
В ролях: Светлана Иванова, Максим Матвеев, Егор Бероев, Артем Фадеев, Владимир Вдовиченков, Сергей Газаров, Гоша Куценко, Анатолий Белый, Кирилл Плетнёв, Алексей Гуськов


- О фильме:

Когда события нанизываются одно на другое, когда каждая минута ставит тебя перед выбором, когда жизнь и смерть становятся частью страшной компьютерной игры, пульт от которой — в чужих руках, тогда ты начинаешь действовать так, будто каждая минута — последняя.

Казалось бы, жизнь хорошенькой разведенной москвички Ксении оставляет не много места для драматических ситуаций: да, сын Тема тяжело переживает развод родителей, да, поклонник поглощен карьерой, да, мама вмешивается в личную жизнь, — но трудно назвать эти обстоятельства критическими.

Все меняется, когда бывший муж, офицер миротворческих сил, просит Ксению прислать Тему к нему, подышать горным воздухом в прекрасной деревушке в доме его родителей! Он уверяет, что это совершенно безопасно — да маленький Тема и не чувствует никакого страха, ведь рядом папа, добрый и непобедимый герой. Но наступает день, когда вражеские танки входят в город — и мир самых страшных игровых иллюзий мальчика становится реальностью. На экране оживают компьютерные драконы и злые космические демоны, втягивая живых людей в огненную вакханалию войны.

Ксения обязана выжить в военном аду, пройти через адскую мясорубку прошитого пулями города, чтобы спасти того, кого любит. У нее нет другой цели — и нет другого пути.


Продолжительность: 02:12:09
Перевод: Оригинал
Субтитры: Отсутствуют
Выпущено: Россия

Август. Восьмого (2012) BDRip 1080p от NOLIMITS-TEAM


- Файл:
Качество:BDRip 1080p (исходник Blu-ray)
Видео:1980x816, 4350 Кбит/сек, 23,976 кадр/сек, AVC, x264, 2,35:1 , 0.116 Бит/(Пиксели*Кадры)
Аудио:AC-3, 384 Кбит/сек, 6 канала(ов), 48,0 КГц
Контейнер: MKV
Размер:4.37 Гб

Август. Восьмого (2012) BDRip 1080p от NOLIMITS-TEAM

Август. Восьмого (2012) BDRip 1080p от NOLIMITS-TEAMАвгуст. Восьмого (2012) BDRip 1080p от NOLIMITS-TEAMАвгуст. Восьмого (2012) BDRip 1080p от NOLIMITS-TEAM



Релиз Группа | Автор Рипа:Август. Восьмого (2012) BDRip 1080p от NOLIMITS-TEAM | kozakАвгуст. Восьмого (2012) BDRip 1080p от NOLIMITS-TEAM


MediaInfo:

General
Unique ID : 245768645345484559718002417445893621387 (0xB8E551C0ACC5BB66B2AF80746198C68B)
Complete name : J:AUGUST_8Avgust.Vos'mogo.BDrip.1080p.NOLIMITS-TEAM.mkv
Format : Matroska
Format version : Version 2
File size : 4.37 GiB
Duration : 2h 12mn
Overall bit rate : 4 731 Kbps
Movie name : Rip by kozak (NOLIMITS-TEAM.RU)
Encoded date : UTC 2012-03-27 18:00:30
Writing application : mkvmerge v5.4.0 ('Piper') built on Mar 10 2012 13:34:39
Writing library : libebml v1.2.3 + libmatroska v1.3.0

Video
ID : 1
Format : AVC
Format/Info : Advanced Video Codec
Format profile : High@L4.1
Format settings, CABAC : Yes
Format settings, ReFrames : 4 frames
Codec ID : V_MPEG4/ISO/AVC
Duration : 2h 12mn
Bit rate : 4 350 Kbps
Width : 1 920 pixels
Height : 816 pixels
Display aspect ratio : 2.35:1
Frame rate : 23.976 fps
Color space : YUV
Chroma subsampling : 4:2:0
Bit depth : 8 bits
Scan type : Progressive
Bits/(Pixel*Frame) : 0.116
Stream size : 3.93 GiB (90%)
Title : Август.Восьмого.BDrip.1080p.NOLIMITS-TEAM
Writing library : x264 core 122 r2184 5c85e0a
Encoding settings : cabac=1 / ref=4 / deblock=1:-3:-2 / analyse=0x3:0x133 / me=umh / subme=11 / psy=1 / psy_rd=1.00:0.15 / mixed_ref=1 / me_range=32 / chroma_me=1 / trellis=2 / 8x8dct=1 / cqm=0 / deadzone=21,11 / fast_pskip=0 / chroma_qp_offset=-3 / threads=12 / sliced_threads=0 / slices=4 / nr=0 / decimate=0 / interlaced=0 / bluray_compat=0 / constrained_intra=0 / bframes=5 / b_pyramid=2 / b_adapt=2 / b_bias=0 / direct=3 / weightb=1 / open_gop=0 / weightp=2 / keyint=240 / keyint_min=24 / scenecut=40 / intra_refresh=0 / rc_lookahead=60 / rc=2pass / mbtree=1 / bitrate=4350 / ratetol=2.0 / qcomp=0.60 / qpmin=0 / qpmax=51 / qpstep=4 / cplxblur=20.0 / qblur=0.5 / ip_ratio=1.40 / aq=2:1.00
Language : English
Default : Yes
Forced : No

Audio
ID : 2
Format : AC-3
Format/Info : Audio Coding 3
Mode extension : CM (complete main)
Codec ID : A_AC3
Duration : 2h 12mn
Bit rate mode : Constant
Bit rate : 384 Kbps
Channel(s) : 6 channels
Channel positions : Front: L C R, Side: L R, LFE
Sampling rate : 48.0 KHz
Bit depth : 16 bits
Compression mode : Lossy
Stream size : 363 MiB (8%)
Title : Оригинал
Language : Russian
Default : Yes
Forced : No

Menu
00:00:00.000 : en:00:00:00.000
00:09:27.400 : en:00:09:27.400
00:19:43.766 : en:00:19:43.766
00:30:03.885 : en:00:30:03.885
00:42:15.533 : en:00:42:15.533
00:52:50.250 : en:00:52:50.250
01:03:11.579 : en:01:03:11.579
01:12:51.826 : en:01:12:51.826
01:24:27.187 : en:01:24:27.187
01:35:20.089 : en:01:35:20.089
01:45:44.421 : en:01:45:44.421
01:56:43.538 : en:01:56:43.538
02:08:09.724 : en:02:08:09.724


Скриншоты:



Август. Восьмого (2012) BDRip 1080p от NOLIMITS-TEAMАвгуст. Восьмого (2012) BDRip 1080p от NOLIMITS-TEAMАвгуст. Восьмого (2012) BDRip 1080p от NOLIMITS-TEAMАвгуст. Восьмого (2012) BDRip 1080p от NOLIMITS-TEAM



Скринлист:



Август. Восьмого (2012) BDRip 1080p от NOLIMITS-TEAM





Уважаемые пользователи, не нужно заказывать фильмы в комментариях. Хотите заказать релиз - воспользуйтесь Столом Заказов на самом сайте Релиз-Группы.
С уважением, Администрация сайта NoLimits-Team
Категория: Наши фильмы

Торренты - Наши фильмы