Видео Научно-популярные фильмы BBC: Сверхчеловек / BBC: Superman [01-06 из 06] (2002-2007) DVDRip
BBC: Сверхчеловек / BBC: Superman [01-06 из 06] (2002-2007) DVDRip

Информация о фильме
Название:BBC: Сверхчеловек
Оригинальное название:BBC: Superman
Год выхода фильмов:2002-2007
Год выхода на DVD2007
Жанр:документальный
Режиссер:Джудис Бантинг
В ролях:специалисты-медики

О фильме:
Документальный сериал ВВС "Сверхчеловек" раскроет перед зрителем секреты человеческого тела, его способности к обновлению и регенерации после перенесенных тяжелых болезней, травм и увечий. Впервые в истории человек не только восхищается способностями своего организма к самоизлечению, но и может управлять ими, совершенствуя, таким образом, саму природу. С помощью потрясающей компьютерной графики вы побываете на уникальных медицинских операциях и станете свидетелями трансплантации конечностей из настоящей живой плоти и крови, узнаете о восстановлении зрения с помощью биоэлектроники, о вживлении человеку клеток мозга животного, вернувших лежачему больному способность ходить, понаблюдаете за распространением и способностью организма бороться с ее возбудителями. Вы сможете убедиться, насколько уникально человеческое тело.

Описание серий
Скрытый текст
1 серия - Травма
Ежедневно во всем мире тысячи людей попадают в больницу с травмами разной степень тяжести, поэтому травма представляет для человечества большую опасность, чем рак и сердечные заболевания. Но нигде силы человеческого организма не проявляются так ярко, как в травматической медицине - в лечении механических повреждений тела.

2 серия - Запчасти для тела
Человеческое тело можно представить как хорошо смазанную машину. Однако у машины одно преимущество - любую их часть можно заменить. С человеческим телом все иначе. Каждый трансплантированный орган чужак в человеческом организме. Медики всего мира пытаются найти способ обмануть человеческое тело и заставить его принять пересаженный орган, как свой собственный.

3 серия - Самоисцеление
Несмотря на всю сложность своей организации, человеческое тело не может само вырастить поврежденные части заново. Но наука уже близка к решению этой задачи: в настоящее время медики учатся выращивать человеческие ткани и использовать их в борьбе с повреждениями органов, причиненными болезнями и несчастными случаями.

4 серия - Враг внутри
Вы можете наслаждаться каждой минутой жизни и чувствовать себя отлично, но на самом деле, вы совершенно не знаете каково ваше здоровье. В эту самую минуту внутри вашего тела клетки борются с возбудителями болезней, делятся и погибают. Среди них могут быть клетки смертельно опасные - это раковые клетки. Изучение и контроль этой страшной болезни поможет противостоять одной из величайших человеческих трагедий.

5 серия - Превращение вредителей в спасителей
Сотни миллионов разнообразных форм жизни обитает снаружи и внутри нас. На одном сантиметре человеческой кожи находится как минимум 2 тысячи бактерий, каждая из которых дышит, питается, а иногда даже перемещается в пространстве. Изучение строения микробов позволит понять, как они распространяются и как быстро могут подчинить себе другие организмы. Эти знания дадут медикам существенное преимущество перед болезнями - возможность контролировать инфекцию.

6 серия - Создатели детей
Чем больше мы узнаем об истоках жизни, тем больше возможностей мы имеем для ее изменения, манипулируя генами. Ученые уже сегодня пытаются вырастить части тела из эмбрионов, комбинируют ДНК нескольких людей для появления на свет одного ребенка и даже пытаются воздействовать на гены из спермы, что может в конечном итоге кардинально изменить облик человечества.


Студия:BBC
Продолжительность:6 серий ~ 00:48:33
Перевод:Профессиональный (одноголосый)
BBC: Сверхчеловек / BBC: Superman [01-06 из 06] (2002-2007) DVDRip
Файл
Кодек:XVID
Качество:DVDRip
Видео:704 x 512 (1.375) at 25.000 fps/AVI at 1996 Кбит/сек
Звук:AC-3 at 192 Кбит/сек/2 канала(ов), 48,0 КГц

MediaInfo
Скрытый текст
Видео
Идентификатор : 0
Формат : MPEG-4 Visual
Профиль формата : Advanced Simple@L5
Параметр BVOP формата : 1
Параметр QPel формата : Нет
Параметр GMC формата : Без точки перехода
Параметр матрицы формата : Default (H.263)
Режим смешивания : Сжатый битовый поток
Идентификатор кодека : XVID
Идентификатор кодека/Подсказка : XviD
Продолжительность : 48 м.
Битрейт : 1794 Кбит/сек
Ширина : 704 пикс.
Высота : 512 пикс.
Соотношение сторон : 1,375
Частота кадров : 25,000 кадр/сек
Цветовое пространство : YUV
Подвыборка цветности : 4:2:0
Битовая глубина : 8 бит
Тип развёртки : Прогрессивная
Метод сжатия : С потерями
Бит/(Пиксели*Кадры) : 0.199
Размер потока : 627 Мбайт (90%)
Библиотека кодирования : XviD 1.1.0 (UTC 2005-11-22)

Аудио
Идентификатор : 1
Формат : AC-3
Формат/Информация : Audio Coding 3
Расширение режима : CM (complete main)
Идентификатор кодека : 2000
Продолжительность : 48 м.
Вид битрейта : Постоянный
Битрейт : 192 Кбит/сек
Канал(ы) : 2 канала(ов)
Расположение каналов : Front: L R
Частота : 48,0 КГц
Битовая глубина : 16 бит
Метод сжатия : С потерями
Размер потока : 67,1 Мбайт (10%)
Выравнивание : Разделение по промежуткам
Продолжительность промежутка : 40 мс. (1,00 видеокадр)
Время предзагрузки промежутка : 500 m

Скриншоты
BBC: Сверхчеловек / BBC: Superman [01-06 из 06] (2002-2007) DVDRip

BBC: Сверхчеловек / BBC: Superman [01-06 из 06] (2002-2007) DVDRip

BBC: Сверхчеловек / BBC: Superman [01-06 из 06] (2002-2007) DVDRip

BBC: Сверхчеловек / BBC: Superman [01-06 из 06] (2002-2007) DVDRip

BBC: Сверхчеловек / BBC: Superman [01-06 из 06] (2002-2007) DVDRip

BBC: Сверхчеловек / BBC: Superman [01-06 из 06] (2002-2007) DVDRip


Категория: Научно-популярные фильмы

Торренты - Научно-популярные фильмы