Видео Научно-популярные фильмы BBC: Атом / BBC: Atom [01-03 из 03] (2007) HDTVRip
BBC: Атом / BBC: Atom [01-03 из 03] (2007) HDTVRip

Информация о фильме
Название:BBC: Атом
Оригинальное название:BBC: Atom
Год выхода:2007
Жанр:Научно-популярный
В ролях:Джим Аль-Халили

О фильме:
Этот документальный сериал повествует о величайшем в истории научном открытии: из чего состоит весь Мир. Проникая в его глубину, учёные разгадали наиболее шокирующие секреты Природы.

Описание серий
Скрытый текст
1 серия: Битва титанов (Clash of Titans)
Скрытая ирония истории Больцмана заключается в том, что когда он покончил с собой в 1906 году, он не знал, что был бы оправдан.За год до того, как он умер, один молодой ученый опубликовал статью, в которой бесспорно и неопровержимо провозгласил реальность атома. Его звали Альберт Эйнштейн.

2 серия: Ключ от космоса (The Key to the Cosmos)
Обнаружение того, что атомы созданы в звездах, несомненно, является одним из величайших достижений человечества, за исключением одной вопиющей проблемы, которую Хойл, никогда не сможет объяснить.
Звездным ядерным синтезом можно объяснить как изготовлены все элементы во Вселенной ... за исключением двух.

3 серия: Иллюзия действительности (The Illusion of Reality)
Фейнман сказал: "Мои студенты физики не понимают мою теорию квантовой электродинамики потому, что я ее не понимаю. Никто не понимает".



Страна:Великобритания
Студия:ВВС
Продолжительность:3 серии ~ 00:59:00
Перевод:Авторский (одноголосый)
BBC: Атом / BBC: Atom [01-03 из 03] (2007) HDTVRip
Файл
Кодек:DivX 5
Качество:HDTVRip
Видео:704 x 384 (1.833) at 25.000 fps/AVI at 2169 Кбит/сек
Звук:MPEG Audio at 128 Кбит/сек/2 канала(ов), 48,0 КГц

MediaInfo
Скрытый текст
Видео
Идентификатор : 0
Формат : MPEG-4 Visual
Профиль формата : Advanced Simple@L5
Параметр BVOP формата : 2
Параметр QPel формата : Нет
Параметр GMC формата : Без точки перехода
Параметр матрицы формата : Default (H.263)
Режим смешивания : Сжатый битовый поток
Идентификатор кодека : DX50
Идентификатор кодека/Подсказка : DivX 5
Продолжительность : 58 м.
Битрейт : 1899 Кбит/сек
Ширина : 704 пикс.
Высота : 384 пикс.
Соотношение сторон : 16:9
Частота кадров : 25,000 кадр/сек
Цветовое пространство : YUV
Подвыборка цветности : 4:2:0
Битовая глубина : 8 бит
Тип развёртки : Прогрессивная
Метод сжатия : С потерями
Бит/(Пиксели*Кадры) : 0.281
Размер потока : 798 Мбайт (88%)
Библиотека кодирования : XviD 1.2.0.dev47 (UTC 2006-11-01)

Аудио #1
Идентификатор : 1
Формат : MPEG Audio
Версия формата : Version 1
Профиль формата : Layer 3
Режим : Joint stereo
Расширение режима : MS Stereo
Идентификатор кодека : 55
Идентификатор кодека/Подсказка : MP3
Продолжительность : 58 м.
Вид битрейта : Постоянный
Битрейт : 128 Кбит/сек
Канал(ы) : 2 канала(ов)
Частота : 48,0 КГц
Метод сжатия : С потерями
Размер потока : 53,8 Мбайт (6%)
Выравнивание : Соединение по промежуткам
Продолжительность промежутка : 40 мс. (1,00 видеокадр)
Время предзагрузки промежутка : 504 ms
Библиотека кодирования : LAME3.93
Настройки программы : -m j -V 4 -q 0 -lowpass 24 -b 128

Аудио #2
Идентификатор : 2
Формат : MPEG Audio
Версия формата : Version 1
Профиль формата : Layer 3
Режим : Joint stereo
Расширение режима : MS Stereo
Идентификатор кодека : 55
Идентификатор кодека/Подсказка : MP3
Продолжительность : 58 м.
Вид битрейта : Постоянный
Битрейт : 128 Кбит/сек
Канал(ы) : 2 канала(ов)
Частота : 48,0 КГц
Метод сжатия : С потерями
Размер потока : 53,8 Мбайт (6%)
Выравнивание : Соединение по промежуткам
Продолжительность промежутка : 40 мс. (1,00 видеокадр)
Время предзагрузки промежутка : 504 ms
Библиотека кодирования : LAME3.93
Настройки программы : -m j -V 4 -q 0 -lowpass 24 -b 128


Скриншоты
BBC: Атом / BBC: Atom [01-03 из 03] (2007) HDTVRip

BBC: Атом / BBC: Atom [01-03 из 03] (2007) HDTVRip

BBC: Атом / BBC: Atom [01-03 из 03] (2007) HDTVRip

BBC: Атом / BBC: Atom [01-03 из 03] (2007) HDTVRip

BBC: Атом / BBC: Atom [01-03 из 03] (2007) HDTVRip

BBC: Атом / BBC: Atom [01-03 из 03] (2007) HDTVRip


Категория: Научно-популярные фильмы

Скачать торрент

Торренты - Научно-популярные фильмы