Видео Научно-популярные фильмы National Geographic: С точки зрения науки: Звездные Часы / Naked Science: Star Clock (2011) TVRip-AVC
National Geographic: С точки зрения науки: Звездные Часы / Naked Science: Star Clock (2011) TVRip-AVC

Информация о фильме
Название: Звездные Часы
Оригинальное название: Star Clock
Год выхода: 2011
Жанр: документальный,научно - популярный
Выпущено: National Geographic
Перевод: профессиональный одноголосный

О фильме:
Как построить компьютер (Антикитерский Mеханизм), не требующий электроэнергии, лишь из металла и дерева ? И он должен делать практически невозможное: рассчитывать движение небесных сфер, фазы луны, движение солнца, планет ! Для предсказания, этих непростых, периодических движений, требуются сложные вычисления, но это уже делалось прежде .
Более 2000 лет назад, в Греции, кто - то уже изобрел компьютер, для работы которого нужно было только покрутить ручку и способный раскрыть тайны солнечной системы . Древнее устройство было не больше коробки для обуви, но в нем находились десятки шестерен и несколько синхронизированных стрелок .
Современные инженеры решили, что лучший способ понять этот астрономический компьютер, возрастом 2000 лет, - построить такой же !

Media Info

Общее
Формат : MPEG-4
Профиль формата : Base Media
Идентификатор кодека : isom
Размер файла : 408 Мбайт
Продолжительность : 45 м.
Режим общего битрейта : Переменный
Общий поток : 1268 Кбит/сек
Дата кодирования : UTC 2012-03-08 08:42:05
Дата пометки : UTC 2012-03-08 08:42:05
Программа кодирования : My MP4Box GUI 0.5.5.4

Видео
Идентификатор : 1
Формат : AVC
Формат/Информация : Advanced Video Codec
Профиль формата : High@L3.1
Параметр CABAC формата : Да
Параметр ReFrames формата : 8 кадров
Идентификатор кодека : avc1
Идентификатор кодека/Информация : Advanced Video Coding
Продолжительность : 45 м.
Битрейт : 1200 Кбит/сек
Максимальный битрейт : 8564 Кбит/сек
Ширина : 704 пикселя
Высота : 400 пикселей
Соотношение сторон : 16:9
Режим частоты кадров : Постоянный
Частота кадров : 25,000 кадров/сек
Цветовое пространство : YUV
Субдискретизация насыщенности : 4:2:0
Битовая глубина : 8 бит
Тип развёртки : Прогрессивная
Бит/(Пиксели*Кадры) : 0.170
Размер потока : 386 Мбайт (95%)
Заголовок : Video
Библиотека кодирования : x264 core 119 r2106 07efeb4
Настройки программы : cabac=1 / ref=8 / deblock=1:0:0 / analyse=0x3:0x133 / me=umh / subme=9 / psy=1 / psy_rd=1.00:0.00 /

mixed_ref=1 / me_range=16 / chroma_me=1 / trellis=2 / 8x8dct=1 / cqm=0 / deadzone=21,11 / fast_pskip=1 / chroma_qp_offset=-2 / threads=6 /

sliced_threads=0 / nr=0 / decimate=1 / interlaced=0 / bluray_compat=0 / constrained_intra=0 / bframes=3 / b_pyramid=2 / b_adapt=2 / b_bias=0 / direct=3 /

weightb=1 / open_gop=0 / weightp=2 / keyint=250 / keyint_min=25 / scenecut=40 / intra_refresh=0 / rc_lookahead=60 / rc=2pass / mbtree=1 / bitrate=1200 /

ratetol=1.0 / qcomp=0.60 / qpmin=0 / qpmax=69 / qpstep=4 / cplxblur=20.0 / qblur=0.5 / ip_ratio=1.40 / aq=1:1.00
Дата кодирования : UTC 2012-03-09 01:22:29
Дата пометки : UTC 2012-03-08 08:42:12

Аудио
Идентификатор : 2
Формат : AAC
Формат/Информация : Advanced Audio Codec
Профиль формата : LC
Идентификатор кодека : 40
Продолжительность : 45 м.
Вид битрейта : Переменный
Битрейт : 64,0 Кбит/сек
Максимальный битрейт : 66,6 Кбит/сек
Каналы : 1 канал
Расположение каналов : Front: C
Частота : 48,0 КГц
Метод сжатия : С потерями
Размер потока : 20,6 Мбайт (5%)
Дата кодирования : UTC 2012-03-08 08:42:12
Дата пометки : UTC 2012-03-08 08:42:12



[National Geographic: С точки зрения науки: Звездные Часы / Naked Science: Star Clock (2011) TVRip-AVCNational Geographic: С точки зрения науки: Звездные Часы / Naked Science: Star Clock (2011) TVRip-AVCNational Geographic: С точки зрения науки: Звездные Часы / Naked Science: Star Clock (2011) TVRip-AVCNational Geographic: С точки зрения науки: Звездные Часы / Naked Science: Star Clock (2011) TVRip-AVCNational Geographic: С точки зрения науки: Звездные Часы / Naked Science: Star Clock (2011) TVRip-AVC
Категория: Научно-популярные фильмы

Торренты - Научно-популярные фильмы