Видео Научно-популярные фильмы National Geographic: Запреты: Ролевые Игры / Taboo: Fantasy Lives (2011) TVRip-AVC
National Geographic: Запреты: Ролевые Игры / Taboo: Fantasy Lives (2011) TVRip-AVC

Информация о фильме
Название: Ролевые Игры
Оригинальное название: Fantasy Lives
Год выхода: 2011
Жанр: документальный
Выпущено:National Geographic
Перевод: дублированный (профессиональный одноголосный)

О фильме:
Там, куда не проникают правила нашего общества находится место, где все возможно: мир фантазий .
В Калифорнии мужчина проводит половину своей взрослой жизни в роли ребенка !
Во Флориде женщина играет в маму винилового ребенка !
В Японии мужчины, потакая своим тайным желаниям, присоединяются к трансгендерной субкультуре !
У мужчины из Тампы есть две жены: настоящая и виртуальная !
Результат таких столкновений мира фантазии и реальности порой бывает странным, выбивающим из колеи или ЗАПРЕТНЫМ !


Media Info

Общее
Формат : MPEG-4
Профиль формата : Base Media
Идентификатор кодека : isom
Размер файла : 403 Мбайт
Продолжительность : 44 м.
Режим общего битрейта : Переменный
Общий поток : 1260 Кбит/сек
Дата кодирования : UTC 2012-03-13 15:21:25
Дата пометки : UTC 2012-03-13 15:21:25
Программа кодирования : My MP4Box GUI 0.5.5.4

Видео
Идентификатор : 1
Формат : AVC
Формат/Информация : Advanced Video Codec
Профиль формата : High@L3.1
Параметр CABAC формата : Да
Параметр ReFrames формата : 8 кадров
Идентификатор кодека : avc1
Идентификатор кодека/Информация : Advanced Video Coding
Продолжительность : 44 м.
Битрейт : 1201 Кбит/сек
Максимальный битрейт : 4475 Кбит/сек
Ширина : 688 пикселей
Высота : 432 пикселя
Соотношение сторон : 1,593
Режим частоты кадров : Постоянный
Частота кадров : 25,000 кадров/сек
Цветовое пространство : YUV
Субдискретизация насыщенности : 4:2:0
Битовая глубина : 8 бит
Тип развёртки : Прогрессивная
Бит/(Пиксели*Кадры) : 0.162
Размер потока : 384 Мбайт (95%)
Заголовок : Video
Библиотека кодирования : x264 core 119 r2106 07efeb4
Настройки программы : cabac=1 / ref=8 / deblock=1:0:0 / analyse=0x3:0x133 / me=umh / subme=9 / psy=1 / psy_rd=1.00:0.00 / mixed_ref=1 / me_range=16 / chroma_me=1 / trellis=2 / 8x8dct=1 / cqm=0 / deadzone=21,11 / fast_pskip=1 / chroma_qp_offset=-2 / threads=6 / sliced_threads=0 / nr=0 / decimate=1 / interlaced=0 / bluray_compat=0 / constrained_intra=0 / bframes=3 / b_pyramid=2 / b_adapt=2 / b_bias=0 / direct=3 / weightb=1 / open_gop=0 / weightp=2 / keyint=250 / keyint_min=25 / scenecut=40 / intra_refresh=0 / rc_lookahead=60 / rc=2pass / mbtree=1 / bitrate=1201 / ratetol=1.0 / qcomp=0.60 / qpmin=0 / qpmax=69 / qpstep=4 / cplxblur=20.0 / qblur=0.5 / ip_ratio=1.40 / aq=1:1.00
Дата кодирования : UTC 2012-03-14 14:24:10
Дата пометки : UTC 2012-03-13 15:21:35

Аудио
Идентификатор : 2
Формат : AAC
Формат/Информация : Advanced Audio Codec
Профиль формата : LC
Идентификатор кодека : 40
Продолжительность : 44 м.
Вид битрейта : Переменный
Битрейт : 56,0 Кбит/сек
Максимальный битрейт : 61,2 Кбит/сек
Каналы : 1 канал
Расположение каналов : Front: C
Частота : 32,0 КГц
Метод сжатия : С потерями
Размер потока : 17,9 Мбайт (4%)
Язык : English
Дата кодирования : UTC 2012-03-13 15:21:35
Дата пометки : UTC 2012-03-13 15:21:35


National Geographic: Запреты: Ролевые Игры / Taboo: Fantasy Lives (2011) TVRip-AVCNational Geographic: Запреты: Ролевые Игры / Taboo: Fantasy Lives (2011) TVRip-AVCNational Geographic: Запреты: Ролевые Игры / Taboo: Fantasy Lives (2011) TVRip-AVCNational Geographic: Запреты: Ролевые Игры / Taboo: Fantasy Lives (2011) TVRip-AVCNational Geographic: Запреты: Ролевые Игры / Taboo: Fantasy Lives (2011) TVRip-AVC
Категория: Научно-популярные фильмы

Торренты - Научно-популярные фильмы