Видео Научно-популярные фильмы National Geographic: Мегазаводы: Уильямс F1 / Megafactories: Williams F1 (2011) TVRip-AVC
National Geographic: Мегазаводы: Уильямс F1 / Megafactories: Williams F1 (2011) TVRip-AVC

Информация о фильме
Название: Уильямс F1
Оригинальное название: Williams F1
Год выхода: 2011
Жанр: документальный, научно - популярный
Выпущено:National Geographic
Перевод: дублированный (профессиональный одноголосный)

О фильме:
Элитная команда формулы-1 Уильямс F1 (Williams F1) открывает свои двери для съемочной группы канала National Geographic , предоставляя беспрецедентный доступ на свой сверхсовременный завод .
Высокие технологии и гений разработчиков должны слиться воедино, ведь мегазавод Уильямс отправляется в гонку со временем, задавшись целью построить победную машину для для сегодняшнего .


Media Info

Общее
Формат : MPEG-4
Профиль формата : Base Media
Идентификатор кодека : isom
Размер файла : 340 Мбайт
Продолжительность : 44 м.
Режим общего битрейта : Переменный
Общий поток : 1058 Кбит/сек
Дата кодирования : UTC 2012-03-13 09:11:56
Дата пометки : UTC 2012-03-13 09:11:56
Программа кодирования : My MP4Box GUI 0.5.5.4

Видео
Идентификатор : 1
Формат : AVC
Формат/Информация : Advanced Video Codec
Профиль формата : High@L3.1
Параметр CABAC формата : Да
Параметр ReFrames формата : 8 кадров
Идентификатор кодека : avc1
Идентификатор кодека/Информация : Advanced Video Coding
Продолжительность : 44 м.
Битрейт : 999 Кбит/сек
Максимальный битрейт : 3426 Кбит/сек
Ширина : 688 пикселей
Высота : 432 пикселя
Соотношение сторон : 1,593
Режим частоты кадров : Постоянный
Частота кадров : 25,000 кадров/сек
Цветовое пространство : YUV
Субдискретизация насыщенности : 4:2:0
Битовая глубина : 8 бит
Тип развёртки : Прогрессивная
Бит/(Пиксели*Кадры) : 0.134
Размер потока : 321 Мбайт (94%)
Заголовок : Video
Библиотека кодирования : x264 core 119 r2106 07efeb4
Настройки программы : cabac=1 / ref=8 / deblock=1:0:0 / analyse=0x3:0x133 / me=umh / subme=9 / psy=1 / psy_rd=1.00:0.00 / mixed_ref=1 / me_range=16 / chroma_me=1 / trellis=2 / 8x8dct=1 / cqm=0 / deadzone=21,11 / fast_pskip=1 / chroma_qp_offset=-2 / threads=6 / sliced_threads=0 / nr=0 / decimate=1 / interlaced=0 / bluray_compat=0 / constrained_intra=0 / bframes=3 / b_pyramid=2 / b_adapt=2 / b_bias=0 / direct=3 / weightb=1 / open_gop=0 / weightp=2 / keyint=250 / keyint_min=25 / scenecut=40 / intra_refresh=0 / rc_lookahead=60 / rc=2pass / mbtree=1 / bitrate=999 / ratetol=1.0 / qcomp=0.60 / qpmin=0 / qpmax=69 / qpstep=4 / cplxblur=20.0 / qblur=0.5 / ip_ratio=1.40 / aq=1:1.00
Дата кодирования : UTC 2012-03-14 01:36:42
Дата пометки : UTC 2012-03-13 09:12:04

Аудио
Идентификатор : 2
Формат : AAC
Формат/Информация : Advanced Audio Codec
Профиль формата : LC
Идентификатор кодека : 40
Продолжительность : 44 м.
Вид битрейта : Переменный
Битрейт : 56,0 Кбит/сек
Максимальный битрейт : 61,1 Кбит/сек
Каналы : 1 канал
Расположение каналов : Front: C
Частота : 32,0 КГц
Метод сжатия : С потерями
Размер потока : 18,0 Мбайт (5%)
Язык : English
Дата кодирования : UTC 2012-03-13 09:12:03
Дата пометки : UTC 2012-03-13 09:12:04


National Geographic: Мегазаводы: Уильямс F1 / Megafactories: Williams F1 (2011) TVRip-AVCNational Geographic: Мегазаводы: Уильямс F1 / Megafactories: Williams F1 (2011) TVRip-AVCNational Geographic: Мегазаводы: Уильямс F1 / Megafactories: Williams F1 (2011) TVRip-AVCNational Geographic: Мегазаводы: Уильямс F1 / Megafactories: Williams F1 (2011) TVRip-AVCNational Geographic: Мегазаводы: Уильямс F1 / Megafactories: Williams F1 (2011) TVRip-AVC
Категория: Научно-популярные фильмы

Скачать торрент

Торренты - Научно-популярные фильмы