Видео Научно-популярные фильмы National Geographic: С точки зрения науки: Земля без Луны / Naked Science: Earth Without the Moon (2010) TVRip-AVC
National Geographic: С точки зрения науки: Земля без Луны / Naked Science: Earth Without the Moon (2010) TVRip-AVC

Информация о фильме
Название: Земля без Луны
Оригинальное название: Earth Without the Moon
Год выхода: 2010
Жанр: документальный
Выпущено:National Geographic
Перевод: профессиональный одноголосный

О фильме:
Из всех спутников в солнечной системе, спутник нашей планеты по - настоящему уникален ! Это единственный спутник достаточно большого размера и находящийся на достаточно близком расстоянии, чтобы стабилизировать свою материнскую планету: Землю . Но вращаясь, наш спутник уходит прочь от Земли с нарастающей скорость . Со временем он окажется слишком далеко, чтобы своей гравитацией уравновешивать Землю .
Уберите Луну из Земля перевернется, вызвав катастрофы по всему миру !
Возникнут чудовищные температуры, которые испарят воду и растопят лед. Океаны поднимутся на сотни метров. Гигансткие песчаные бури и ураганы станут бушевать веками.
Без защиты Луны, жизнь на Земле, такой какой мы её знаем, исчезнет навсегда .


Видео:AVC, 704x400, 25 fps, 1200 kbps, 0.170 bit/pixel
Аудио:AAC (LC), 32 kHz, 1 ch, 56 kbps

Media Info

Общее
Формат : MPEG-4
Профиль формата : Base Media
Идентификатор кодека : isom
Размер файла : 422 Мбайт
Продолжительность : 46 м.
Режим общего битрейта : Переменный
Общий поток : 1259 Кбит/сек
Дата кодирования : UTC 2012-03-16 16:52:44
Дата пометки : UTC 2012-03-16 16:52:44
Программа кодирования : My MP4Box GUI 0.5.5.4

Видео
Идентификатор : 1
Формат : AVC
Формат/Информация : Advanced Video Codec
Профиль формата : High@L3.1
Параметр CABAC формата : Да
Параметр ReFrames формата : 8 кадров
Идентификатор кодека : avc1
Идентификатор кодека/Информация : Advanced Video Coding
Продолжительность : 46 м.
Битрейт : 1200 Кбит/сек
Максимальный битрейт : 3791 Кбит/сек
Ширина : 704 пикселя
Высота : 400 пикселей
Соотношение сторон : 16:9
Режим частоты кадров : Постоянный
Частота кадров : 25,000 кадров/сек
Цветовое пространство : YUV
Субдискретизация насыщенности : 4:2:0
Битовая глубина : 8 бит
Тип развёртки : Прогрессивная
Бит/(Пиксели*Кадры) : 0.170
Размер потока : 402 Мбайт (95%)
Заголовок : Video
Библиотека кодирования : x264 core 119 r2106 07efeb4
Настройки программы : cabac=1 / ref=8 / deblock=1:0:0 / analyse=0x3:0x133 / me=umh / subme=9 / psy=1 / psy_rd=1.00:0.00 / mixed_ref=1 / me_range=16 / chroma_me=1 / trellis=2 / 8x8dct=1 /

cqm=0 / deadzone=21,11 / fast_pskip=1 / chroma_qp_offset=-2 / threads=6 / sliced_threads=0 / nr=0 / decimate=1 / interlaced=0 / bluray_compat=0 / constrained_intra=0 / bframes=3 / b_pyramid=2 / b_adapt=2 /

b_bias=0 / direct=3 / weightb=1 / open_gop=0 / weightp=2 / keyint=250 / keyint_min=25 / scenecut=40 / intra_refresh=0 / rc_lookahead=60 / rc=2pass / mbtree=1 / bitrate=1200 / ratetol=1.0 / qcomp=0.60 /

qpmin=0 / qpmax=69 / qpstep=4 / cplxblur=20.0 / qblur=0.5 / ip_ratio=1.40 / aq=1:1.00
Дата кодирования : UTC 2012-03-17 16:35:57
Дата пометки : UTC 2012-03-16 16:52:59

Аудио
Идентификатор : 2
Формат : AAC
Формат/Информация : Advanced Audio Codec
Профиль формата : LC
Идентификатор кодека : 40
Продолжительность : 46 м.
Вид битрейта : Переменный
Битрейт : 56,0 Кбит/сек
Максимальный битрейт : 61,0 Кбит/сек
Каналы : 1 канал
Расположение каналов : Front: C
Частота : 32,0 КГц
Метод сжатия : С потерями
Размер потока : 18,8 Мбайт (4%)
Язык : English
Дата кодирования : UTC 2012-03-16 16:52:59
Дата пометки : UTC 2012-03-16 16:52:59


National Geographic: С точки зрения науки: Земля без Луны / Naked Science: Earth Without the Moon (2010) TVRip-AVCNational Geographic: С точки зрения науки: Земля без Луны / Naked Science: Earth Without the Moon (2010) TVRip-AVCNational Geographic: С точки зрения науки: Земля без Луны / Naked Science: Earth Without the Moon (2010) TVRip-AVCNational Geographic: С точки зрения науки: Земля без Луны / Naked Science: Earth Without the Moon (2010) TVRip-AVCNational Geographic: С точки зрения науки: Земля без Луны / Naked Science: Earth Without the Moon (2010) TVRip-AVC
Категория: Научно-популярные фильмы

Торренты - Научно-популярные фильмы