Видео Научно-популярные фильмы Марсианские роботы / Martian Robots (2008) HDTVRip 720p
Марсианские роботы / Martian Robots (2008) HDTVRip 720p

Информация о фильме
Название:Марсианские роботы
Оригинальное название:Martian Robots
Год выхода:2008
Жанр:документальный, научно-популярный
Режиссер:Марк Дэвис
В ролях:Марсианские роботы, ученые, инженеры

О фильме:
Все начиналось как 3-х месячный полет на Марс, который стал одним из самых великих приключений космической эры. Изучение чужого мира глазами 2-х марсоходов с расстояния 160 миллионов километров. Их открытия показали нам новый Марс, но открытия на этом еще не закончены

Страна:США
Студия:National Geographic
Продолжительность:00:47:28
Перевод:Профессиональный (одноголосый) закадровый

Файл
Кодек:MKV, H.264
Качество:HDTVRip 720p
Видео:1280x720, 2771 kbps, 25.0 fps, 0.126 bit/pixel
Звук:384 kbps, 6 channels, 48 kHz
MediaInfo
General
Unique ID : 240014822339490240069993339897995653994 (0xB4912C604669A5CE80474C7F8734F36A)
Complete name : D:VideoMartian Robots.2008.HDTV.720p.mkv
Format : Matroska
Format version : Version 2
File size : 1.09 GiB
Duration : 47mn 28s
Overall bit rate : 3 294 Kbps
Encoded date : UTC 2010-04-03 16:10:37
Writing application : mkvmerge v2.9.8 ('C'est le bon') built on Aug 13 2009 12:49:06
Writing library : libebml v0.7.7 + libmatroska v0.8.1

Video
ID : 1
Format : AVC
Format/Info : Advanced Video Codec
Format profile : High@L5.1
Format settings, CABAC : Yes
Format settings, ReFrames : 5 frames
Codec ID : V_MPEG4/ISO/AVC
Duration : 47mn 28s
Bit rate : 2 908 Kbps
Width : 1 280 pixels
Height : 720 pixels
Display aspect ratio : 16:9
Frame rate : 25.000 fps
Color space : YUV
Chroma subsampling : 4:2:0
Bit depth : 8 bits
Scan type : Progressive
Bits/(Pixel*Frame) : 0.126
Stream size : 966 MiB (86%)
Title : Video
Writing library : x264 core 60 r900 a9af942
Encoding settings : cabac=1 / ref=5 / deblock=1:0:0 / analyse=0x3:0x133 / me=umh / subme=6 / brdo=1 / mixed_ref=1 / me_range=8 / chroma_me=1 / trellis=1 / 8x8dct=1 / cqm=0 / deadzone=21,11 / chroma_qp_offset=0 / threads=3 / nr=0 / decimate=1 / mbaff=0 / bframes=3 / b_pyramid=1 / b_adapt=1 / b_bias=0 / direct=3 / wpredb=1 / bime=1 / keyint=250 / keyint_min=50 / scenecut=40(pre) / rc=2pass / bitrate=2908 / ratetol=1.0 / rceq='blurCplx^(1-qComp)' / qcomp=1.00 / qpmin=10 / qpmax=51 / qpstep=4 / cplxblur=20.0 / qblur=0.5 / ip_ratio=1.40 / pb_ratio=1.30 / aq=2:1.00
Default : Yes
Forced : No

Audio
ID : 2
Format : AC-3
Format/Info : Audio Coding 3
Mode extension : CM (complete main)
Codec ID : A_AC3
Duration : 47mn 28s
Bit rate mode : Constant
Bit rate : 384 Kbps
Channel(s) : 6 channels
Channel positions : Front: L C R, Side: L R, LFE
Sampling rate : 48.0 KHz
Bit depth : 16 bits
Compression mode : Lossy
Stream size : 130 MiB (12%)
Title : Audio
Language : Russian
Default : Yes
Forced : No
Скриншоты
Марсианские роботы / Martian Robots (2008) HDTVRip 720pМарсианские роботы / Martian Robots (2008) HDTVRip 720pМарсианские роботы / Martian Robots (2008) HDTVRip 720pМарсианские роботы / Martian Robots (2008) HDTVRip 720pМарсианские роботы / Martian Robots (2008) HDTVRip 720pМарсианские роботы / Martian Robots (2008) HDTVRip 720pМарсианские роботы / Martian Robots (2008) HDTVRip 720p

Категория: Научно-популярные фильмы

Торренты - Научно-популярные фильмы