Видео Сериалы Безумцы / Mad Men [05x01] (2012) WEB-DL 720р | Кубик в Кубе
Безумцы / Mad Men [05x01] (2012) WEB-DL 720р | Кубик в Кубе

Информация о фильме
Название:Безумцы
Оригинальное название:Mad Men
Год выхода:2012
Жанр:детектив
Режиссер:Фил Абрахам, Джон Слэттери
В ролях:Джон Хэмм, Элизабет Мосс, Винсент Картайзер, Джэньюэри Джонс, Кристина Хендрикс, Брайан Бэтт, Аарон Стэтон, Рич Соммер, Джон Слэттери

О фильме:
США, 60-е годы ХХ века. В центре повествования - работа рекламного Агентства "Стерлинг-Купер", расположенного на престижной Медисон-авеню в центре Нью-Йорка, и жизнь его креативного директора - мастера манипуляций и интриг - Дона Дрейпера (Джон Хэмм). Находясь на вершине карьеры, он противостоит конкурентам, стараясь сберечь своe положение в компании. Служебные и семейные перипетии Дона и его коллег происходят на фоне глобальных событий в жизни американского общества тех лет…


Безумцы / Mad Men [05x01] (2012) WEB-DL 720р | Кубик в КубеБезумцы / Mad Men [05x01] (2012) WEB-DL 720р | Кубик в Кубе
Страна:США
Продолжительность:~ 00:45:00
Перевод:Профессиональный двухголосый закадровый (Кубик в Кубе)

Файл
Кодек:MPEG-4 AVC
Качество:WEB-DL 720р
Видео:1280x720 at 23.976 fps, MPEG-4 AVC, 4000 kbps avg, 0.172 b/pixel
Звук:
Rus: 48 kHz, Dolby Digital 5.1, ~384.00 kbps avg
Eng 1: 48 kHz, Dolby Digital 5.1, ~384.00 kbps avg - Oригинал с HDTV
Eng 2: 48 kHz, AAC 2.0, ~160.00 kbps avg - Оригинал с WEB-DL
Субтитры:русские, английские

Семпл

Скриншоты
Безумцы / Mad Men [05x01] (2012) WEB-DL 720р | Кубик в КубеБезумцы / Mad Men [05x01] (2012) WEB-DL 720р | Кубик в КубеБезумцы / Mad Men [05x01] (2012) WEB-DL 720р | Кубик в Кубе

MediaInfo
General
Unique ID : 192964251888684411783319110886817465826 (0x912B9026B926B2FCBEC642563E7305E2)
Complete name : D:Mad Men Season 5 WEB-DL 720рMad.Men.S05E01.A.Little.Kiss.Part1.720p.WEB-DL.mkv
Format : Matroska
Format version : Version 2
File size : 1.24 GiB
Duration : 46mn 17s
Overall bit rate : 3 826 Kbps
Encoded date : UTC 2012-03-29 15:43:33
Writing application : mkvmerge v4.9.1 ('Ich will') сборка от Jul 11 2011 23:53:15
Writing library : libebml v1.2.1 + libmatroska v1.1.1

Video
ID : 1
Format : AVC
Format/Info : Advanced Video Codec
Format profile : High@L3.1
Format settings, CABAC : No
Format settings, ReFrames : 2 frames
Codec ID : V_MPEG4/ISO/AVC
Duration : 46mn 17s
Width : 1 280 pixels
Height : 720 pixels
Display aspect ratio : 16:9
Frame rate : 23.976 fps
Color space : YUV
Chroma subsampling : 4:2:0
Bit depth : 8 bits
Scan type : Progressive
Language : English
Default : Yes
Forced : No
Color primaries : BT.709-5, BT.1361, IEC 61966-2-4, SMPTE RP177
Transfer characteristics : BT.709-5, BT.1361
Matrix coefficients : BT.709-5, BT.1361, IEC 61966-2-4 709, SMPTE RP177

Audio #1
ID : 2
Format : AC-3
Format/Info : Audio Coding 3
Mode extension : CM (complete main)
Codec ID : A_AC3
Duration : 46mn 17s
Bit rate mode : Constant
Bit rate : 384 Kbps
Channel(s) : 6 channels
Channel positions : Front: L C R, Side: L R, LFE
Sampling rate : 48.0 KHz
Bit depth : 16 bits
Compression mode : Lossy
Stream size : 127 MiB (10%)
Title : Кубик в Кубе
Language : Russian
Default : No
Forced : No

Audio #2
ID : 3
Format : AC-3
Format/Info : Audio Coding 3
Mode extension : CM (complete main)
Codec ID : A_AC3
Duration : 46mn 17s
Bit rate mode : Constant
Bit rate : 384 Kbps
Channel(s) : 6 channels
Channel positions : Front: L C R, Side: L R, LFE
Sampling rate : 48.0 KHz
Bit depth : 16 bits
Compression mode : Lossy
Stream size : 127 MiB (10%)
Title : English 5.1 AC3
Language : English
Default : No
Forced : No

Audio #3
ID : 4
Format : AAC
Format/Info : Advanced Audio Codec
Format profile : LC
Codec ID : A_AAC
Duration : 46mn 17s
Channel(s) : 2 channels
Channel positions : Front: L R
Sampling rate : 48.0 KHz
Compression mode : Lossy
Title : 2.0 AAC
Language : English
Default : No
Forced : No

Text #1
ID : 5
Format : ASS
Codec ID : S_TEXT/ASS
Codec ID/Info : Advanced Sub Station Alpha
Compression mode : Lossless
Title : Инга Бу
Language : Russian
Default : No
Forced : No

Text #2
ID : 6
Format : UTF-8
Codec ID : S_TEXT/UTF8
Codec ID/Info : UTF-8 Plain Text
Title : English
Language : Russian
Default : No
Forced : No


Релиз от:Безумцы / Mad Men [05x01] (2012) WEB-DL 720р | Кубик в Кубе
Категория: Сериалы

Торренты - Сериалы